Громила / Big Driver (Микаэл Саломон / Mikael Salomon) [2014, США, триллер, драма, HDRip] VO (PashaUp) + Sub Eng + original Eng

Ответить на тему
Статистика раздачи
Размер:  1,73 GB   |    Зарегистрирован:  3 месяца 29 дней   |    Скачан:  0 раз

Полного источника не было: Никогда

   
 
Автор Сообщение

cyber ®

Пол: Не указан

Стаж: 5 месяцев 6 дней

Сообщений: 139

Создавать темы 18-Апр-2019 17:27

[Цитировать]

Громила / Big Driver
Страна: США
Жанр: триллер, драма
Год выпуска: 2014
Продолжительность: 01:27:55
Перевод: Одноголосый закадровый - Павел Морозов aka PashaUp по переводу Janetta
Субтитры: английские
Оригинальная дорожка: английский
Режиссер: Микаэл Саломон / Mikael Salomon

В ролях: Мария Белло, Олимпия Дукакис, Джоан Джетт, Энн Дауд, Уилл Харрис, Дженнифер Кидд, Тара Никодемо
Описание: Писательницу, сочиняющую детективы, зверски изнасиловал маньяк. Это страшное происшествие открыло ей такие стороны собственной натуры, о которых она и не подозревала…
Качество видео: HDRip [gua-bigdriver-1080p]
Формат видео: AVI
Видео: 704x400 (1.76:1), 23.976 fps, XviD build 73 ~1913 kbps avg, 0.28 bit/pixel
Аудио: 48 kHz, AC3 Dolby Digital, 3/2 (L,C,R,l,r) + LFE ch, ~448 kbps - одноголосый
Аудио: 48 kHz, AC3 Dolby Digital, 3/2 (L,C,R,l,r) + LFE ch, ~448 kbps - оригинал (отдельным файлом)

MediaInfo

General
Complete name : H:\Big.Driver.2014.hdrip_[1.46]_[teko]\Big.Driver.2014.hdrip_[1.46].avi
Format : AVI
Format/Info : Audio Video Interleave
File size : 1.46 GiB
Duration : 1h 27mn
Overall bit rate : 2 369 Kbps
Writing application : VirtualDubMod 1.5.10.3 | www.virtualdub-fr.org || (build 2550/release)
Writing library : VirtualDubMod build 2550/release
Video
ID : 0
Format : MPEG-4 Visual
Format profile : Advanced Simple@L5
Format settings, BVOP : 2
Format settings, QPel : No
Format settings, GMC : No warppoints
Format settings, Matrix : Custom
Codec ID : XVID
Codec ID/Hint : XviD
Duration : 1h 27mn
Bit rate : 1 914 Kbps
Width : 704 pixels
Height : 400 pixels
Display aspect ratio : 16:9
Frame rate : 23.976 (23976/1000) fps
Color space : YUV
Chroma subsampling : 4:2:0
Bit depth : 8 bits
Scan type : Progressive
Compression mode : Lossy
Bits/(Pixel*Frame) : 0.283
Stream size : 1.18 GiB (81%)
Writing library : XviD 73
Audio
ID : 1
Format : AC-3
Format/Info : Audio Coding 3
Mode extension : CM (complete main)
Format settings, Endianness : Big
Codec ID : 2000
Duration : 1h 27mn
Bit rate mode : Constant
Bit rate : 448 Kbps
Channel(s) : 6 channels
Channel positions : Front: L C R, Side: L R, LFE
Sampling rate : 48.0 KHz
Frame rate : 31.250 fps (1536 spf)
Compression mode : Lossy
Stream size : 281 MiB (19%)
Alignment : Split accross interleaves
Interleave, duration : 42 ms (1.00 video frame)
Interleave, preload duratio : 500 ms
Релиз группы:
--
[cybertorrent.ru].t2140.torrent 
Торрент: Зарегистрирован [ 2019-04-18 17:27 ] · 826E25ECB975527A53DF6B4ABDBB43CBCA5CE7C4

Скачать .torrent

Скачать

18 KB

Статус: проверено
Скачан: 0 раз
Размер: 1,73 GB
terms.php
[Профиль] [ЛС]
Показать сообщения:    
Ответить на тему

Текущее время: 18-Авг 15:53

Часовой пояс: UTC ± 0



Вы не можете начинать темы
Вы не можете отвечать на сообщения
Вы не можете редактировать свои сообщения
Вы не можете удалять свои сообщения
Вы не можете голосовать в опросах
Вы не можете прикреплять файлы к сообщениям
Вы можете скачивать файлы