Чайка / The seagull (Майкл Майер / Michael Mayer) [2018, США, драма, BDRip-AVC] MVO + Sub Eng + Original Eng

Ответить на тему
Статистика раздачи
Размер:  2,18 GB   |    Зарегистрирован:  4 месяца 26 дней   |    Скачан:  0 раз
Сидов:  12  [  0 KB/s  ]  
   
 
Автор Сообщение

солнышко ®

Пол: Не указан

Стаж: 6 месяцев 2 дня

Сообщений: 565

Создавать темы 18-Апр-2019 17:27

[Цитировать]

Чайка / The seagull- Страна: США
Жанр: драма
Год выпуска: 2018
Продолжительность: 01:38:38
Перевод: Профессиональный (многоголосый закадровый)
Субтитры: английские
Оригинальная аудиодорожка: английский-Режиссер: Майкл Майер / Michael Mayer-В ролях: Аннетт Бенинг, Кори Столл, Гленн Флешлер, Билли Хоул, Брайан Деннехи, Элизабет Мосс, Мэр Уиннингхэм, Джон Тенни, Майкл Зеген, Сирша Ронан
Описание: Молодой драматург Константин Треплев ставит собственную пьесу в провинциальной усадьбе, отдав единственную роль своей амбициозной возлюбленной Нине. Провал спектакля разрушит прежние взаимоотношения и положит начало новым роковым связям.-Сэмпл | Кинопоиск | -Качество видео: BDRip-AVC / The.Seagull.2018.1080p.BluRay.REMUX.AVC.DTS-HD.MA.5.1-FGT
Формат видео: MKV
Видео: x264 (High@L4.1); 1136x476, Display aspect ratio 2.386:1, 23.976 fps, 2322 Kbps
Аудио 1: Русский: AC-3; 16 bits 48 Khz; 5.1ch 384 Kbps; CBR | MVO
Аудио 2: Английский: 16 bits 48 Khz; 5.1ch 448 Kbps; CBR | Original eng

MediaInfo

x264 log

avs [info]: 1136x476p 1:1 @ 24000/1001 fps (cfr)
x264 [info]: using SAR=1/1
x264 [info]: using cpu capabilities: MMX2 SSE2Fast SSSE3 SSE4.2
x264 [info]: profile High, level 4.1
x264 [info]: frame I:968 Avg QP:15.64 size: 61217
x264 [info]: frame P:28412 Avg QP:17.16 size: 26542
x264 [info]: frame B:112529 Avg QP:19.16 size: 8041
x264 [info]: consecutive B-frames: 1.3% 1.6% 6.9% 17.1% 20.5% 35.6% 7.1% 3.3% 2.8% 1.0% 0.7% 0.4% 0.3% 0.6% 0.3% 0.7%
x264 [info]: mb I I16..4: 8.5% 74.7% 16.8%
x264 [info]: mb P I16..4: 2.1% 10.4% 1.5% P16..4: 39.8% 22.3% 16.4% 0.8% 0.2% skip: 6.6%
x264 [info]: mb B I16..4: 0.1% 0.5% 0.1% B16..8: 37.5% 10.6% 2.9% direct: 6.0% skip:42.4% L0:43.3% L1:43.6% BI:13.1%
x264 [info]: 8x8 transform intra:73.7% inter:60.3%
x264 [info]: direct mvs spatial:99.8% temporal:0.2%
x264 [info]: coded y,uvDC,uvAC intra: 74.9% 72.9% 52.6% inter: 23.5% 19.0% 6.9%
x264 [info]: i16 v,h,dc,p: 61% 11% 9% 19%
x264 [info]: i8 v,h,dc,ddl,ddr,vr,hd,vl,hu: 13% 7% 11% 9% 13% 13% 11% 12% 12%
x264 [info]: i4 v,h,dc,ddl,ddr,vr,hd,vl,hu: 13% 7% 6% 10% 15% 14% 12% 11% 12%
x264 [info]: i8c dc,h,v,p: 46% 22% 21% 12%
x264 [info]: Weighted P-Frames: Y:11.5% UV:8.2%
x264 [info]: ref P L0: 47.2% 9.5% 14.9% 6.6% 5.1% 3.8% 3.3% 1.9% 1.7% 1.4% 1.3% 1.1% 1.1% 1.0% 0.1% 0.0%
x264 [info]: ref B L0: 72.8% 11.0% 5.5% 2.7% 2.0% 1.6% 1.3% 0.8% 0.7% 0.6% 0.5% 0.3% 0.2%
x264 [info]: ref B L1: 93.8% 6.2%
x264 [info]: kb/s:2322.42
-General
Unique ID : 206618368526537148870383719055272340023 (0x9B714013B2B836858C81BCBD9A666A37)
Complete name : Чайка.2018.mkv
Format : Matroska
Format version : Version 2
File size : 2.18 GiB
Duration : 1 h 38 min
Overall bit rate : 3 157 kb/s
Encoded date : UTC 2019-04-18 12:54:57
Writing application : mkvmerge v7.8.0 ('River Man') 32bit built on Mar 27 2015 16:18:02
Writing library : libebml v1.3.1 + libmatroska v1.4.2
Video
ID : 1
Format : AVC
Format/Info : Advanced Video Codec
Format profile : High@L4.1
Format settings : CABAC / 14 Ref Frames
Format settings, CABAC : Yes
Format settings, ReFrames : 14 frames
Codec ID : V_MPEG4/ISO/AVC
Duration : 1 h 38 min
Bit rate : 2 262 kb/s
Width : 1 136 pixels
Height : 476 pixels
Display aspect ratio : 2.40:1
Frame rate mode : Constant
Frame rate : 23.976 (24000/1001) FPS
Color space : YUV
Chroma subsampling : 4:2:0
Bit depth : 8 bits
Scan type : Progressive
Bits/(Pixel*Frame) : 0.174
Stream size : 1.56 GiB (72%)
Title : Чайка / The seagull 2018
Writing library : x264 core 152 r2851kMod ba24899
Encoding settings : cabac=1 / ref=14 / deblock=1:-3:-2 / analyse=0x3:0x133 / me=umh / subme=10 / psy=1 / fade_compensate=0.00 / psy_rd=1.00:0.00 / mixed_ref=1 / me_range=32 / chroma_me=1 / trellis=2 / 8x8dct=1 / cqm=0 / deadzone=21,11 / fast_pskip=0 / chroma_qp_offset=-2 / threads=12 / lookahead_threads=3 / sliced_threads=0 / nr=0 / decimate=0 / interlaced=0 / bluray_compat=0 / constrained_intra=0 / bframes=15 / b_pyramid=2 / b_adapt=2 / b_bias=0 / direct=3 / weightb=1 / open_gop=0 / weightp=2 / keyint=240 / keyint_min=23 / scenecut=40 / intra_refresh=0 / rc_lookahead=80 / rc=crf / mbtree=0 / crf=17.1000 / qcomp=0.65 / qpmin=0 / qpmax=69 / qpstep=4 / vbv_maxrate=62500 / vbv_bufsize=78125 / crf_max=0.0 / nal_hrd=none / filler=0 / ip_ratio=1.30 / pb_ratio=1.25 / aq=1:0.60 / zones=136472,141909,q=26
Language : English
Default : Yes
Forced : No
Color range : Limited
Color primaries : BT.709
Transfer characteristics : BT.709
Matrix coefficients : BT.709
Audio #1
ID : 2
Format : AC-3
Format/Info : Audio Coding 3
Codec ID : A_AC3
Duration : 1 h 38 min
Bit rate mode : Constant
Bit rate : 384 kb/s
Channel(s) : 6 channels
Channel positions : Front: L C R, Side: L R, LFE
Sampling rate : 48.0 kHz
Frame rate : 31.250 FPS (1536 SPF)
Bit depth : 16 bits
Compression mode : Lossy
Stream size : 271 MiB (12%)
Title : AC-3; 16 bits 48 Khz; 5.1ch 384 Kbps; CBR | MVO
Language : Russian
Service kind : Complete Main
Default : Yes
Forced : No
Audio #2
ID : 3
Format : AC-3
Format/Info : Audio Coding 3
Codec ID : A_AC3
Duration : 1 h 38 min
Bit rate mode : Constant
Bit rate : 448 kb/s
Channel(s) : 6 channels
Channel positions : Front: L C R, Side: L R, LFE
Sampling rate : 48.0 kHz
Frame rate : 31.250 FPS (1536 SPF)
Bit depth : 16 bits
Compression mode : Lossy
Stream size : 316 MiB (14%)
Title : AC-3; 16 bits 48 Khz; 5.1ch 448 Kbps; CBR | Original eng
Language : English
Service kind : Complete Main
Default : No
Forced : No
Text #1
ID : 4
Format : UTF-8
Codec ID : S_TEXT/UTF8
Codec ID/Info : UTF-8 Plain Text
Title : Субтитры английские
Language : English
Default : No
Forced : No
Text #2
ID : 5
Format : UTF-8
Codec ID : S_TEXT/UTF8
Codec ID/Info : UTF-8 Plain Text
Title : Субтитры английские (SDH)
Language : English
Default : No
Forced : No

Скриншоты

[cybertorrent.ru].t2154.torrent 
Торрент: Зарегистрирован [ 2019-04-18 17:27 ] · 5EFCBB4FF3F36E054D2FA51DFDF38DE1B9C0A183

Скачать .torrent

Скачать

11 KB

Статус: проверено
Скачан: 0 раз
Размер: 2,18 GB
terms.php
[Профиль] [ЛС]
Показать сообщения:    
Ответить на тему

Текущее время: 15-Сен 10:10

Часовой пояс: UTC ± 0



Вы не можете начинать темы
Вы не можете отвечать на сообщения
Вы не можете редактировать свои сообщения
Вы не можете удалять свои сообщения
Вы не можете голосовать в опросах
Вы не можете прикреплять файлы к сообщениям
Вы можете скачивать файлы

Партнеры

Выражаем благодарность всем людям, внесшим вклад в наш сайт в далёком прошлом. Мы помним Вас, гордимся Вами и ждём Вас обратно!

Интересное в сети