Поезд на север / Сезон: 1 / Серии: 1-4 из 4 (Алексей Гусев (II)) [2013, мелодрама, приключения, HDTVRip]

Ответить на тему
Статистика раздачи
Размер:  2,17 GB   |    Зарегистрирован:  3 месяца 28 дней   |    Скачан:  0 раз

Полного источника не было: Никогда

   
 
Автор Сообщение

sss777sss ®

Пол: Не указан

Стаж: 5 месяцев 6 дней

Сообщений: 397

Создавать темы 19-Апр-2019 15:45

[Цитировать]

Поезд на север- > Год выпуска: 2013
> Производство: «Мостелефильм»
> Жанр: Мелодрама, приключения
> Продолжительность: ~ 45 мин.
> Субтитры: Отсутствуют-> Режиссер: Алексей Гусев (II)-> В ролях: Владимир Гостюхин, Владимир Стеклов, Юрий Кузнецов, Александр Аравушкин, Алла Пролич, Татьяна Калих, Софья Лебедева, Светлана Никифорова, Сергей Пукита, Олеся Пуховая, Геннадий Готовчиц, Сергей Князев (IV), Михаил Павлик, Владимир Гусев (II), Анна Зайцева (II), Антон Старовойтов, Сергей Зыгмантович, Виктор Васильев (II), Максим Брагинец, Павел Адамчиков, Дмитрий Медведев (II), Максим Кречетов, Антон Жуков, Андрей Олиференко, Олег Вебер, Дмитрий Глазачев, Сергей Юревич, Игорь Денисов, Руслан Чернецкий, Валерий Зеленский (II), Виктор Рыбчинский и др.-> Описание: Бывший десантник Иван Громов живет с большой семьей на ферме в средней полосе России.
Когда-то он был на хорошем счету у начальства, дома к его мнению прислушивались и уважали. Но сейчас он для окружающих словно «отработанный материал». И только внучка Лиля все еще слушается старика, любит его и заботится.
Так бы и они и жили — родные по крови, но чужие по духу, — пока однажды не пришла в семью Громовых настоящая финансовая катастрофа. Чтобы спасти родных и выбраться из долговой ямы, Лиля принимает предложение руки и сердца от сына местного олигарха – алкоголика и тунеядца Валерика.
Узнав об этом, дед берет с внучки обещание повременить с замужеством и отправляется в Магаданский край на золотые прииски, чтобы отыскать золото и спасти внучку от несчастливого брака.
Удастся ли бывшему десантнику пройти огонь, воду и медные трубы?
-
> Релиз группы -> Все раздачи сериала
> Семпл
> Кино-Театр-> Качество: HDTVRip
> Формат: AVI
> Видео кодек: XviD
> Аудио кодек: AC3
> Видео: 720x400 (1.80:1), 25 fps, XviD build 73 ~1499 kbps avg, 0.21 bit/pixel
> Аудио: 48 kHz, AC3 Dolby Digital, 2/0 (L,R) ch, ~192.00 kbps avg

MediaInfo

Код:General
Complete name : D:\Поезд на север\Poezd.na.sever.s01e01.2013.HDTVRip.RG.Russkie.serialy.avi
Format : AVI
Format/Info : Audio Video Interleave
File size : 551 MiB
Duration : 45mn 18s
Overall bit rate : 1 702 Kbps
Writing application : VirtualDubMod 1.5.10.3 | www.virtualdub-fr.org || (build 2550/release)
Writing library : VirtualDubMod build 2550/release
Video
ID : 0
Format : MPEG-4 Visual
Format profile : Advanced Simple@L5
Format settings, BVOP : 2
Format settings, QPel : No
Format settings, GMC : No warppoints
Format settings, Matrix : Custom
Codec ID : XVID
Codec ID/Hint : XviD
Duration : 45mn 18s
Bit rate : 1 500 Kbps
Width : 720 pixels
Height : 400 pixels
Display aspect ratio : 16:9
Frame rate : 25.000 fps
Color space : YUV
Chroma subsampling : 4:2:0
Bit depth : 8 bits
Scan type : Progressive
Compression mode : Lossy
Bits/(Pixel*Frame) : 0.208
Stream size : 486 MiB (88%)
Writing library : XviD 73
Audio
ID : 1
Format : AC-3
Format/Info : Audio Coding 3
Mode extension : CM (complete main)
Format settings, Endianness : Big
Codec ID : 2000
Duration : 45mn 18s
Bit rate mode : Constant
Bit rate : 192 Kbps
Channel(s) : 2 channels
Channel positions : Front: L R
Sampling rate : 48.0 KHz
Bit depth : 16 bits
Compression mode : Lossy
Stream size : 62.2 MiB (11%)
Alignment : Split accross interleaves
Interleave, duration : 40 ms (1.00 video frame)
Interleave, preload duration : 500 ms

Скриншоты








СравнениеСравнение с этой раздачей http://cybertorrent.ru/forum/viewtopic.php?t=4572979
http://screenshotcomparison.com/comparison/132746/picture:7
[cybertorrent.ru].t2159.torrent 
Торрент: Зарегистрирован [ 2019-04-19 15:45 ] · BB7719DA972828ADA379C6DD40830305AB8F4357

Скачать .torrent

Скачать

12 KB

Статус: проверено
Скачан: 0 раз
Размер: 2,17 GB
terms.php
[Профиль] [ЛС]
Показать сообщения:    
Ответить на тему

Текущее время: 18-Авг 15:25

Часовой пояс: UTC ± 0



Вы не можете начинать темы
Вы не можете отвечать на сообщения
Вы не можете редактировать свои сообщения
Вы не можете удалять свои сообщения
Вы не можете голосовать в опросах
Вы не можете прикреплять файлы к сообщениям
Вы можете скачивать файлы