Позывной "Стая" / Стая / Сезон: 1 / Серии: 1-8 из 8 (Андрей Щербинин) [2013, боевик, SATRip]

Ответить на тему
Статистика раздачи
Размер:  4,14 GB   |    Зарегистрирован:  3 месяца 29 дней   |    Скачан:  0 раз

Полного источника не было: Никогда

   
 
Автор Сообщение

sss777sss ®

Пол: Не указан

Стаж: 5 месяцев 6 дней

Сообщений: 401

Создавать темы 19-Апр-2019 15:45

[Цитировать]

Позывной "Стая"- Год выпуска: 2013
Производство: «Трикс Медиа»
Жанр: Боевик
Продолжительность: ~ 43 мин.
Субтитры: Отсутствуют-Режиссер: Андрей Щербинин-В ролях: Евгений Сидихин, Сергей Воробьёв (IV), Геннадий Казачков, Александр Эрлих, Пётр Логачёв, Полина Сидихина, Юрий Уткин, Юрий Томилин (II), Евгений Курилкин, Андрей Перович, Руслан Кацагаджиев, Елизавета Нилова, Игорь Лепихин, Сергей Малюгов, Игорь Царев, Дмитрий Рыбаков, Георгий Маришин, Юрий Загребнев, Игорь Климов, Казбек Кушаков, Игорь Мосюк, Анастасия Дурнева, Алёна Матвеева, Алан Казико, Дмитрий Пономарев (IV), Сергей Кушаков, Инна Сафарова, Ирина Хруль, Алан Томаев, Натиг Талыбов, Карен Багдасарян, Артур Мкртчян, Анатолий Дробязко, Артур Гургенян, Сергей Требесов, Ибрагим Исмаилов, Леонид Алимов, Армен Алексанян и др.-Описание: В центре событий - боевая группа наёмных военных под названием "Стая". Стив, Бес, Шаман, Ронин и Лаванда - военные профессионалы с большим опытом, работающие под прикрытием российских спецслужб.-Дополнительная информация: Серии сдвоены.-Релиз группы -Все раздачи сериала
Семпл
Кино-Театр-Качество:SATRip
Формат: AVI
Видео кодек: XviD
Аудио кодек: AC3
Видео: 720x400 (1.80:1), 25 fps, XviD build 73 ~1498 kbps avg, 0.21 bit/pixel
Аудио: 48 kHz, AC3 Dolby Digital, 2/0 (L,R) ch, ~192.00 kbps avg

MediaInfo

Код:General
Complete name : D:\Позывной Стая\Pozivnoi.Staya .s01e01.2013.SATRip.RG.Russkie.serialy.avi
Format : AVI
Format/Info : Audio Video Interleave
File size : 1.03 GiB
Duration : 1h 26mn
Overall bit rate : 1 701 Kbps
Writing application : VirtualDubMod 1.5.10.3 | www.virtualdub-fr.org || (build 2550/release)
Writing library : VirtualDubMod build 2550/release
Video
ID : 0
Format : MPEG-4 Visual
Format profile : Advanced Simple@L5
Format settings, BVOP : 2
Format settings, QPel : No
Format settings, GMC : No warppoints
Format settings, Matrix : Custom
Codec ID : XVID
Codec ID/Hint : XviD
Duration : 1h 26mn
Bit rate : 1 499 Kbps
Width : 720 pixels
Height : 400 pixels
Display aspect ratio : 16:9
Frame rate : 25.000 fps
Color space : YUV
Chroma subsampling : 4:2:0
Bit depth : 8 bits
Scan type : Progressive
Compression mode : Lossy
Bits/(Pixel*Frame) : 0.208
Stream size : 926 MiB (88%)
Writing library : XviD 73
Audio
ID : 1
Format : AC-3
Format/Info : Audio Coding 3
Mode extension : CM (complete main)
Format settings, Endianness : Big
Codec ID : 2000
Duration : 1h 26mn
Bit rate mode : Constant
Bit rate : 192 Kbps
Channel(s) : 2 channels
Channel positions : Front: L R
Sampling rate : 48.0 KHz
Bit depth : 16 bits
Compression mode : Lossy
Stream size : 119 MiB (11%)
Alignment : Split accross interleaves
Interleave, duration : 40 ms (1.00 video frame)
Interleave, preload duration : 500 ms

Скриншоты








[cybertorrent.ru].t2160.torrent 
Торрент: Зарегистрирован [ 2019-04-19 15:45 ] · 7C14CBC9E1BD66BCB500842088EA469F4C5623A3

Скачать .torrent

Скачать

21 KB

Статус: проверено
Скачан: 0 раз
Размер: 4,14 GB
terms.php
[Профиль] [ЛС]
Показать сообщения:    
Ответить на тему

Текущее время: 19-Авг 06:00

Часовой пояс: UTC ± 0



Вы не можете начинать темы
Вы не можете отвечать на сообщения
Вы не можете редактировать свои сообщения
Вы не можете удалять свои сообщения
Вы не можете голосовать в опросах
Вы не можете прикреплять файлы к сообщениям
Вы можете скачивать файлы