Поиски улик / Сезон: 1 / Серии: 1-10 из 10 (Илья Хотиненко) [2014, детектив, криминальный фильм, WEBRip]

Ответить на тему
Статистика раздачи
Размер:  5,26 GB   |    Зарегистрирован:  4 месяца 4 дня   |    Скачан:  0 раз

Полного источника не было: Никогда

   
 
Автор Сообщение

sss777sss ®

Пол: Не указан

Стаж: 5 месяцев 12 дней

Сообщений: 410

Создавать темы 19-Апр-2019 15:45

[Цитировать]

Поиски улик- > Год выпуска: 2014
> Производство: «компания Телеоблик»
> Жанр: Детектив, криминальный фильм
> Продолжительность: ~ 49 мин.
> Субтитры: Отсутствуют-> Режиссер: Илья Хотиненко-> В ролях: Даниил Страхов, Александра Урсуляк, Евгений Коряковский, Валентин Смирнитский, Андрей Харыбин, Сергей Кагаков, Тимур Савин, Сергей Калашников, Константин Гацалов, Антон Момот, Андрей Арзяев, Надежда Винокурова, Теона Дольникова, Роман Индык, Юлия Ковалёва, Наталья Кутасова, Сергей Лавыгин, Владимир Малков, Габриэлла Мариани, Елена Муравьёва, Наталья Румянцева-Перель, Наталья Рычкова, Ксения Рябинкина, Валентин Самохин, Денис Старков, Вера Строкова, Максим Студеновский, Ольга Тенякова, Евгения Храповицкая, Владимир Щербаков, Даниил Кокин, Александр Никольский (II), Светлана Тормахова, Юлия Юрченко, Дмитрий Дьяченко (II), Юрий Павлов, Ирина Чипиженко и др.-> Описание: Главный герой сериала - криминальный эксперт Артем Александрович. Он нестандартный работник органов, кандидат наук, способен расследовать такие дела, за которые не хотят браться даже самые опытные следователи. Аналитический склад ума, профессиональные навыки, скрупулезность и дотошность – вот те качества, которые являются основополагающими его успеха.
Артем работает в команде со следователем полиции Седых, с которым у него натянутые отношения. Причиной такого положения дел является то, что его коллега работает совершенно иными методами. Седых никогда не докапывается до истины, готов спихнуть вину на первого подозреваемого и закрыть дело...-> Релиз группы -> Все раздачи сериала
> Семпл
> Кино-Театр-> Качество: WEBRip
> Формат: AVI
> Видео кодек: XviD
> Аудио кодек: AC3
> Видео: 720x400 (1.80:1), 25 fps, XviD build 73 ~1499 kbps avg, 0.21 bit/pixel
> Аудио: 48 kHz, AC3 Dolby Digital, 2/0 (L,R) ch, ~192.00 kbps avg

MediaInfo

Код:General
Complete name : D:\Поиски улик\Poiski.ulik.s01e01.2014.WEBRip.RG.Russkie.serialy.avi
Format : AVI
Format/Info : Audio Video Interleave
File size : 540 MiB
Duration : 44mn 21s
Overall bit rate : 1 702 Kbps
Writing application : VirtualDubMod 1.5.10.3 | www.virtualdub-fr.org || (build 2550/release)
Writing library : VirtualDubMod build 2550/release
Video
ID : 0
Format : MPEG-4 Visual
Format profile : Advanced Simple@L5
Format settings, BVOP : 2
Format settings, QPel : No
Format settings, GMC : No warppoints
Format settings, Matrix : Custom
Codec ID : XVID
Codec ID/Hint : XviD
Duration : 44mn 21s
Bit rate : 1 500 Kbps
Width : 720 pixels
Height : 400 pixels
Display aspect ratio : 16:9
Frame rate : 25.000 fps
Color space : YUV
Chroma subsampling : 4:2:0
Bit depth : 8 bits
Scan type : Progressive
Compression mode : Lossy
Bits/(Pixel*Frame) : 0.208
Stream size : 476 MiB (88%)
Writing library : XviD 73
Audio
ID : 1
Format : AC-3
Format/Info : Audio Coding 3
Mode extension : CM (complete main)
Format settings, Endianness : Big
Codec ID : 2000
Duration : 44mn 21s
Bit rate mode : Constant
Bit rate : 192 Kbps
Channel(s) : 2 channels
Channel positions : Front: L R
Sampling rate : 48.0 KHz
Bit depth : 16 bits
Compression mode : Lossy
Stream size : 60.9 MiB (11%)
Alignment : Split accross interleaves
Interleave, duration : 40 ms (1.00 video frame)
Interleave, preload duration : 500 ms

Скриншоты








СравнениеСравнение с этой раздачей http://cybertorrent.ru/forum/viewtopic.php?t=4760173
http://screenshotcomparison.com/comparison/133052/picture:7

Если ваш рейтинг упадет ниже 0,3, вы не сможете скачивать торренты! Подробнее о рейтинге.

[cybertorrent.ru].t2161.torrent 
Торрент: Зарегистрирован [ 2019-04-19 15:45 ] · EEF7A66246AEFF01B3A535B3908C6B1A498E6FE7

Скачать .torrent

Скачать

28 KB

Статус: проверено
Скачан: 0 раз
Размер: 5,26 GB
terms.php
[Профиль] [ЛС]
Показать сообщения:    
Ответить на тему

Текущее время: 24-Авг 15:39

Часовой пояс: UTC ± 0



Вы не можете начинать темы
Вы не можете отвечать на сообщения
Вы не можете редактировать свои сообщения
Вы не можете удалять свои сообщения
Вы не можете голосовать в опросах
Вы не можете прикреплять файлы к сообщениям
Вы можете скачивать файлы