Лето волков / Капли крови на цветущем вереске / Сезон: 1 / Серии: 1-6 из 6 (Дмитрий Иосифов) [2011, драма, военный, BDRip]

Ответить на тему
Статистика раздачи
Размер:  4,41 GB   |    Зарегистрирован:  4 месяца 25 дней   |    Скачан:  0 раз

Полного источника не было: Никогда

   
 
Автор Сообщение

sss777sss ®

Пол: Не указан

Стаж: 6 месяцев 2 дня

Сообщений: 423

Создавать темы 19-Апр-2019 15:45

[Цитировать]

Лето волков- > Год выпуска: 2011
> Производство: «Кинокомпания «Дирекция кино»»
> Жанр: Драма, военный
> Продолжительность: ~ 50 мин.
> Субтитры: Отсутствуют-> Режиссер: Дмитрий Иосифов-> В ролях: Алексей Бардуков, Игорь Скляр, Юлия Пересильд, Мария Куликова, Александр Воробьёв, Сергей Колтаков, Михаил Евланов, Вера Кавалерова, Мария Звонарёва, Олег Тактаров, Пётр Ступин, Денис Карасёв, Тамара Миронова, Ольга Онищенко, Алексей Вертинский, Ольга Прохватыло, Николай Голубев, Екатерина Вежновец, Анна Полупанова, Александра Комиссарова, Юлия Полубинская, Александр Брухацкий, Виктор Богушевич, Татьяна Мархель, Валентина Лосовская, Геннадий Гарбук, Людмила Разумова, Никита Сологалов, Алексей Соров, Сергей Друзьяк, Максим Житник, Александр Маслов, Ян Цапник, Александр Иванов (V), Владимир Маслаков, Алексей Усольцев, Иннокентий Сичкарь, Алексей Морозов, Кирилл Новицкий, Антон Старовойтов, Сергей Власов (S.A.V.), Михаил Есьман, Денис Тарасенко, Петр Томашевский, Виктор Молчан, Олег Ткачёв, Пётр Юрченков (младший), Ольга Филимонова, Светлана Кожемякина, Юлия Дейнега, Диана Запрудская, Олег Корчиков, Сергей Власов (IV), Тамара Муженко, Марина Денисова, Сергей Лосев, Татьяна Ружавская, Игорь Сидорчик, Михаил Процько, Илья Сологуб, Анжела Кораблёва, Василий Гринь, Олег Лукьянцев, Александр Лось и др.-> Описание: Украинская деревня. освобождённая в 1944 году от немецко-фашистских захватчиков.
Молодой лейтенант, приехавший после ранения в деревню, занимается поимкой бандитов.
Вторая экранизация романа В. Смирнова "Тревожный месяц вересень".
-
> Релиз группы -> Все раздачи сериала
> Семпл
> Кино-Театр-> Качество: BDRip
> Формат: AVI
> Видео кодек: XviD
> Аудио кодек: AC3
> Видео: 720x400 (1.80:1), 24.000 fps, XviD build 73 ~1499 kbps avg, 0.22 bit/pixel
> Аудио: 48 kHz, AC3 Dolby Digital, 3/2 (L,C,R,l,r) + LFE ch, ~448.00 kbps avg

MediaInfo

Код:General
Complete name : D:\Лето волков\Leto.volkov.s01e01.2011.BDRip.RG.Russkie.serialy.avi
Format : AVI
Format/Info : Audio Video Interleave
File size : 741 MiB
Duration : 52mn 57s
Overall bit rate : 1 957 Kbps
Writing application : VirtualDubMod 1.5.10.3 | www.virtualdub-fr.org || (build 2550/release)
Writing library : VirtualDubMod build 2550/release
Video
ID : 0
Format : MPEG-4 Visual
Format profile : Advanced Simple@L5
Format settings, BVOP : 2
Format settings, QPel : No
Format settings, GMC : No warppoints
Format settings, Matrix : Custom
Codec ID : XVID
Codec ID/Hint : XviD
Duration : 52mn 57s
Bit rate : 1 499 Kbps
Width : 720 pixels
Height : 400 pixels
Display aspect ratio : 16:9
Frame rate : 24.000 fps
Color space : YUV
Chroma subsampling : 4:2:0
Bit depth : 8 bits
Scan type : Progressive
Compression mode : Lossy
Bits/(Pixel*Frame) : 0.217
Stream size : 568 MiB (77%)
Writing library : XviD 73
Audio
ID : 1
Format : AC-3
Format/Info : Audio Coding 3
Mode extension : CM (complete main)
Format settings, Endianness : Big
Codec ID : 2000
Duration : 52mn 57s
Bit rate mode : Constant
Bit rate : 448 Kbps
Channel(s) : 6 channels
Channel positions : Front: L C R, Side: L R, LFE
Sampling rate : 48.0 KHz
Bit depth : 16 bits
Compression mode : Lossy
Stream size : 170 MiB (23%)
Alignment : Split accross interleaves
Interleave, duration : 42 ms (1.00 video frame)
Interleave, preload duration : 500 ms

Скриншоты

[






СравнениеСравнение с этими раздачами
http://screenshotcomparison.com/comparison/133271/picture:7
http://cybertorrent.ru/forum/viewtopic.php?t=3852668
http://screenshotcomparison.com/comparison/133403/picture:7
http://cybertorrent.ru/forum/viewtopic.php?t=3757067
http://screenshotcomparison.com/comparison/133404/picture:7
http://cybertorrent.ru/forum/viewtopic.php?t=3657262
[cybertorrent.ru].t2162.torrent 
Торрент: Зарегистрирован [ 2019-04-19 15:45 ] · FD6852D495F3463742A91C2A1A8F5DDB789E98F1

Скачать .torrent

Скачать

23 KB

Статус: проверено
Скачан: 0 раз
Размер: 4,41 GB
terms.php
[Профиль] [ЛС]
Показать сообщения:    
Ответить на тему

Текущее время: 15-Сен 09:38

Часовой пояс: UTC ± 0



Вы не можете начинать темы
Вы не можете отвечать на сообщения
Вы не можете редактировать свои сообщения
Вы не можете удалять свои сообщения
Вы не можете голосовать в опросах
Вы не можете прикреплять файлы к сообщениям
Вы можете скачивать файлы

Партнеры

Выражаем благодарность всем людям, внесшим вклад в наш сайт в далёком прошлом. Мы помним Вас, гордимся Вами и ждём Вас обратно!

Интересное в сети