Случайная любовь / Любовь крупным планом / Настоящая любовь / Love at large (Алан Рудольф / Alan Rudolph) [1990, США, комедия, HDRip] DVO (НТВ+) + AVO (Василий Горчаков) + Original Eng

Ответить на тему
Статистика раздачи
Размер:  1,72 GB   |    Зарегистрирован:  3 месяца 27 дней   |    Скачан:  0 раз

Полного источника не было: Никогда

   
 
Автор Сообщение

serzh ®

Пол: Не указан

Стаж: 5 месяцев 6 дней

Сообщений: 344

Создавать темы 20-Апр-2019 16:13

[Цитировать]

Случайная любовь / Любовь крупным планом / Настоящая любовь / Love at large
Страна: США
Жанр: комедия
Год выпуска: 1990
Продолжительность: 01:37:23
Перевод: Профессиональный (двухголосый закадровый) - НТВ+
Перевод: Авторский (одноголосый закадровый) - Василий Горчаков
Субтитры: нет
Оригинальная аудиодорожка: английский
Режиссер: Алан Рудольф / Alan Rudolph
В ролях: Том Беренджер, Элизабет Перкинс, Энн Арчер, Кейт Кэпшоу, Аннетт О'Тул, Тед Левайн, Энн Мэгнусон, Кевин Дж. О'Коннор, Руби Ди, Барри Миллер, Гэйлард Сартэйн, Роберт Гулд, Дирк Блокер, Дебра Дюсэй, Саншайн Паркер, Билли Силва, Лаура Кенни
Описание: Гарри Доббс — частный детектив. Его очередная клиентка — шикарная дама, которая поручает Доббсу следить за бывшим мужем и выяснить, кто его новая пассия. В первый день слежки Доббс принимает постороннего мужчину за свой «объект» и выясняет массу провокативных подробностей его жизни. Параллельно ревнивая подруга детектива нанимает начинающего сыщика Стеллу, чтобы следить за Доббсом…
Сэмпл
Качество видео: HDRip [Love.at.Large.1990.1080p.BluRay.x264-SADPANDA]
Формат видео: AVI
Видео: 704x384 (1.83:1), 23.976 fps, XviD build 73 ~1937 kbps avg, 0.30 bit/pixel
Аудио: 48 kHz, AC3 Dolby Digital, 2/0 (L,R) ch, ~192 kbps - двухголосый
отдельными файлами:
Аудио: 48 kHz, AC3 Dolby Digital, 2/0 (L,R) ch, ~192 kbps - авторский
Аудио: 48 kHz, AC3 Dolby Digital, 2/0 (L,R) ch, ~192 kbps - оригинал

MediaInfo

General
Complete name : H:\Love.at.Large.1990.hdrip_[1.46]_[teko]\Love.at.Large.1990.hdrip_[1.46].avi
Format : AVI
Format/Info : Audio Video Interleave
File size : 1.46 GiB
Duration : 1h 37mn
Overall bit rate : 2 139 Kbps
Writing application : VirtualDubMod 1.5.10.3 | www.virtualdub-fr.org || (build 2550/release)
Writing library : VirtualDubMod build 2550/release
Video
ID : 0
Format : MPEG-4 Visual
Format profile : Advanced Simple@L5
Format settings, BVOP : 2
Format settings, QPel : No
Format settings, GMC : No warppoints
Format settings, Matrix : Custom
Codec ID : XVID
Codec ID/Hint : XviD
Duration : 1h 37mn
Bit rate : 1 938 Kbps
Width : 704 pixels
Height : 384 pixels
Display aspect ratio : 1.85:1
Frame rate : 23.976 (23976/1000) fps
Color space : YUV
Chroma subsampling : 4:2:0
Bit depth : 8 bits
Scan type : Progressive
Compression mode : Lossy
Bits/(Pixel*Frame) : 0.299
Stream size : 1.32 GiB (91%)
Writing library : XviD 73
Audio
ID : 1
Format : AC-3
Format/Info : Audio Coding 3
Mode extension : CM (complete main)
Format settings, Endianness : Big
Codec ID : 2000
Duration : 1h 37mn
Bit rate mode : Constant
Bit rate : 192 Kbps
Channel(s) : 2 channels
Channel positions : Front: L R
Sampling rate : 48.0 KHz
Frame rate : 31.250 fps (1536 spf)
Compression mode : Lossy
Stream size : 134 MiB (9%)
Alignment : Split accross interleaves
Interleave, duration : 42 ms (1.00 video frame)
Interleave, preload duratio : 500 ms
Релиз группы:
--
[cybertorrent.ru].t2185.torrent 
Торрент: Зарегистрирован [ 2019-04-20 16:13 ] · 385A4261D304E60D599BBD092C53D2F3F04A03A9

Скачать .torrent

Скачать

18 KB

Статус: проверено
Скачан: 0 раз
Размер: 1,72 GB
terms.php
[Профиль] [ЛС]
Показать сообщения:    
Ответить на тему

Текущее время: 18-Авг 14:53

Часовой пояс: UTC ± 0



Вы не можете начинать темы
Вы не можете отвечать на сообщения
Вы не можете редактировать свои сообщения
Вы не можете удалять свои сообщения
Вы не можете голосовать в опросах
Вы не можете прикреплять файлы к сообщениям
Вы можете скачивать файлы