Суперфорсаж! / Superfast! (Джейсон Фридберг / Jason Friedberg, Аарон Зельцер / Aaron Seltzer) [2014, США, комедия, BDRip] Dub (iTunes) + Sub Eng + Original Eng

Ответить на тему
Статистика раздачи
Размер:  1,77 GB   |    Зарегистрирован:  1 месяц 7 дней   |    Скачан:  0 раз

Полного источника не было: Никогда

   
 
Автор Сообщение

cyber ®

Пол: Не указан

Стаж: 1 месяц 13 дней

Сообщений: 61

Создавать темы 18-Мар-2019 10:00

[Цитировать]

Суперфорсаж! / Superfast!
Страна: США
Жанр: комедия
Год выпуска: 2014
Продолжительность: 01:39:30
Перевод: Профессиональный (дублированный) - iTunes
Субтитры: английские
Оригинальная аудиодорожка: английский
Режиссер: Джейсон Фридберг / Jason Friedberg, Аарон Зельцер / Aaron Seltzer
В ролях: Лили Мирожник, Дэйл Павински, Андреа Наведо, Шантель Вислэвски, Дэниэл Буко, Майкл Флорес, Вероника МакКласки, Гонсало Менендес, Алекс Ашбаух, Дио Джонсон
Описание: Короли комедии снова в строю. На этот раз объектом пародии стала «форсажная» франшиза и прочие фильмы о гонках, ограблениях и крутых тачках. Шутки еще смешнее, ирония еще жестче, плотность гэгов - еще выше.
Сэмпл
Качество видео: BDRip [Superfast.2015.BDRemux.1080p.NovaLan]
Формат видео: AVI
Видео: 704x400 (1.76:1), 24 fps, XviD build 73 ~1702 kbps avg, 0.25 bit/pixel
Аудио: 48 kHz, AC3 Dolby Digital, 3/2 (L,C,R,l,r) + LFE ch, ~384 kbps - дубляж
Аудио: 48 kHz, AC3 Dolby Digital, 3/2 (L,C,R,l,r) + LFE ch, ~448 kbps - оригинал (отдельным файлом)
Формат субтитров: softsub (SRT)

MediaInfo

General
Complete name : H:\Superfast.2015.bdrip_[1.46]_[teko]\Superfast.2015.bdrip_[1.46].avi
Format : AVI
Format/Info : Audio Video Interleave
File size : 1.46 GiB
Duration : 1h 39mn
Overall bit rate : 2 096 Kbps
Writing application : VirtualDubMod 1.5.10.3 | www.virtualdub-fr.org || (build 2550/release)
Writing library : VirtualDubMod build 2550/release
Video
ID : 0
Format : MPEG-4 Visual
Format profile : Advanced Simple@L5
Format settings, BVOP : 2
Format settings, QPel : No
Format settings, GMC : No warppoints
Format settings, Matrix : Custom
Codec ID : XVID
Codec ID/Hint : XviD
Duration : 1h 39mn
Bit rate : 1 703 Kbps
Width : 704 pixels
Height : 400 pixels
Display aspect ratio : 16:9
Frame rate : 24.000 fps
Color space : YUV
Chroma subsampling : 4:2:0
Bit depth : 8 bits
Scan type : Progressive
Compression mode : Lossy
Bits/(Pixel*Frame) : 0.252
Stream size : 1.18 GiB (81%)
Writing library : XviD 73
Audio
ID : 1
Format : AC-3
Format/Info : Audio Coding 3
Mode extension : CM (complete main)
Format settings, Endianness : Big
Codec ID : 2000
Duration : 1h 39mn
Bit rate mode : Constant
Bit rate : 384 Kbps
Channel(s) : 6 channels
Channel positions : Front: L C R, Side: L R, LFE
Sampling rate : 48.0 KHz
Frame rate : 31.250 fps (1536 spf)
Compression mode : Lossy
Stream size : 273 MiB (18%)
Alignment : Split accross interleaves
Interleave, duration : 42 ms (1.00 video frame)
Interleave, preload duratio : 500 ms
Релиз группы:
--

Если ваш рейтинг упадет ниже 0,3, вы не сможете скачивать торренты! Подробнее о рейтинге.

[cybertorrent.ru].t219.torrent 
Торрент: Зарегистрирован [ 2019-03-18 10:04 ] · 1A462FE7F52E70F8805D7831738591DFAE386C79

Скачать .torrent

Скачать

18 KB

Статус: проверено
Скачан: 0 раз
Размер: 1,77 GB
terms.php
[Профиль] [ЛС]
Показать сообщения:    
Ответить на тему

Текущее время: 25-Апр 20:36

Часовой пояс: UTC ± 0



Вы не можете начинать темы
Вы не можете отвечать на сообщения
Вы не можете редактировать свои сообщения
Вы не можете удалять свои сообщения
Вы не можете голосовать в опросах
Вы не можете прикреплять файлы к сообщениям
Вы можете скачивать файлы