Московские тайны. Графский парк / Сезон: 4 / Серии: 1-2 из 2 (Антон Павлючик) [2019, детектив, WEBRip]

Ответить на тему
Статистика раздачи
Размер:  1,11 GB   |    Зарегистрирован:  4 месяца 24 дня   |    Скачан:  0 раз
Сидов:  30  [  0 KB/s  ]   Личеров:  4  [  0 KB/s  ]  
   
 
Автор Сообщение

sss777sss ®

Пол: Не указан

Стаж: 6 месяцев 2 дня

Сообщений: 423

Создавать темы 20-Апр-2019 16:13

[Цитировать]

Московские тайны. Графский парк
Год выпуска: 2019
Производство: Россия Приор Продакшн
Жанр: детектив
Продолжительность: 00:43:00
Субтитры: нет
Режиссёр: Антон Павлючик
В ролях: Анна Старшенбаум, Евгений Пронин, Александр Робак, Светлана Тимофеева-Летуновская, Екатерина Семенова, Владислав Ветров, Алексей Лонгин
Описание: Ранним утром на территории Останкинского парка обнаружено тело девушки. Кто-то разложил на траве тело, закинув ее руки за голову и привязав веревку к ноге. Девушка оказывается живой, но в коме. Настя Вяземская не успевает разгадать смысл этого извращенного ритуала, как в парке появляется новая жертва – мужчина, чудом оставшийся в живых. Над Останкино сгустились тучи. Кто придет сюда гулять и любоваться Шереметевской усадьбой, если здесь орудует опасный маньяк? Настя начинает догадываться, что преступник вдохновился легендами о жене графа, крепостной актрисе Жемчуговой. Но лишь разоблачив злодея, она понимает, что он был всего лишь марионеткой в чужих руках…
Реклама: Нет
Сэмпл: https://www.mediafire.com/#myfiles
Качество: WEBRip
Формат: AVI
Видео кодек: XviD
Аудио кодек: AC3
Видео: XVID; 720х400 (16:9); 25,000 кадров/сек; 1600 Кбит/сек; Бит/(Пиксели*Кадры): 0.222
Аудио: AC-3; 192 Кбит/сек; 2 канала; 48,0 КГц

MI

Общее
Полное имя : D:\закачки\Московские тайны. Графский парк . 2019.WEB-DLRip. Files-x\02. Московские тайны. Графский парк . 2019.WEB-DLRip. Files-x.avi
Формат : AVI
Формат/Информация : Audio Video Interleave
Размер файла : 567 Мбайт
Продолжительность : 43 м. 59 с.
Общий поток : 1802 Кбит/сек
Программа кодирования : VirtualDubMod 1.5.10.3 | www.virtualdub-fr.org || (build 2550/release)
Библиотека кодирования : VirtualDubMod build 2550/release
Видео
Идентификатор : 0
Формат : MPEG-4 Visual
Профиль формата : Advanced Simple@L5
Настройки формата : BVOP1 / Custom Matrix
Параметр BVOP формата : 1
Параметр QPel формата : Нет
Параметр GMC формата : Без точки перехода
Параметр матрицы формата : Выборочная
Идентификатор кодека : XVID
Идентификатор кодека/Подсказка : XviD
Продолжительность : 43 м. 59 с.
Битрейт : 1600 Кбит/сек
Ширина : 720 пикселей
Высота : 400 пикселей
Соотношение сторон : 16:9
Частота кадров : 25,000 кадров/сек
Цветовое пространство : YUV
Субдискретизация насыщенности : 4:2:0
Битовая глубина : 8 бит
Тип развёртки : Прогрессивная
Метод сжатия : С потерями
Бит/(Пиксели*Кадры) : 0.222
Размер потока : 503 Мбайт (89%)
Библиотека кодирования : XviD 73
Аудио
Идентификатор : 1
Формат : AC-3
Формат/Информация : Audio Coding 3
Идентификатор кодека : 2000
Продолжительность : 43 м. 59 с.
Вид битрейта : Постоянный
Битрейт : 192 Кбит/сек
Каналы : 2 канала
Расположение каналов : Front: L R
Частота : 48,0 КГц
Частота кадров : 31,250 кадров/сек (1536 SPF)
Битовая глубина : 16 бит
Метод сжатия : С потерями
Размер потока : 60,4 Мбайт (11%)
Выравнивание : Разделение по промежуткам
Продолжительность промежутка : 40 мс. (1,00 видеокадр)
Время предзагрузки промежутка : 500 мс.
ServiceKind/String : Complete Main

Скриншоты

Предыдущие и альтернативные раздачи
Релиз-группы
[cybertorrent.ru].t2199.torrent 
Торрент: Зарегистрирован [ 2019-04-20 16:13 ] · 4BA6C191E1A3E1A05B67D3360D0530FA46FDBBF3

Скачать .torrent

Скачать

12 KB

Статус: проверено
Скачан: 0 раз
Размер: 1,11 GB
terms.php
[Профиль] [ЛС]
Показать сообщения:    
Ответить на тему

Текущее время: 15-Сен 09:38

Часовой пояс: UTC ± 0



Вы не можете начинать темы
Вы не можете отвечать на сообщения
Вы не можете редактировать свои сообщения
Вы не можете удалять свои сообщения
Вы не можете голосовать в опросах
Вы не можете прикреплять файлы к сообщениям
Вы можете скачивать файлы

Партнеры

Выражаем благодарность всем людям, внесшим вклад в наш сайт в далёком прошлом. Мы помним Вас, гордимся Вами и ждём Вас обратно!

Интересное в сети