Любить нельзя расстаться / El amor menos pensado (Хуан Вера / Juan Vera) [2018, Аргентина, мелодрама, комедия, BDRip] MVO (iTunes) + Original Spa

Ответить на тему
Статистика раздачи
Размер:  2,19 GB   |    Зарегистрирован:  3 месяца 26 дней   |    Скачан:  0 раз
Сидов:  4  [  0 KB/s  ]  
   
 
Автор Сообщение

солнышко ®

Пол: Не указан

Стаж: 5 месяцев 6 дней

Сообщений: 526

Создавать темы 21-Апр-2019 16:40

[Цитировать]

Любить нельзя расстаться / El amor menos pensado
Страна: Аргентина
Жанр: мелодрама, комедия
Год выпуска: 2018
Продолжительность: 02:09:37-Перевод: Профессиональный (многоголосый закадровый) | iTunes
Субтитры: нет
Оригинальная аудиодорожка: испанский-Режиссер: Хуан Вера / Juan Vera-В ролях: Рикардо Дарин, Мерседес Моран, Клаудия Фонтан, Луис Рубио, Андреа Пьетра, Жан Пьер Ноер, Норман Бриски, Хуан Минухин, Габриэль Коррадо, Андреа Политти-Описание: Маркос и Ана счастливо прожили вместе 25 лет, но когда их единственный повзрослевший сын отправляется на учебу в другую страну, они чувствуют, что из их отношений пропало что то важное. Действительно ли они все еще любят друг друга или между ними всего лишь привязанность? Чтобы разобраться в своих чувствах, они решают пожить отдельно. Расстаются, что называется, по обоюдному согласию. Поначалу холостая жизнь выглядит более интересной и захватывающей, но со временем у них начинают возникать новые вопросы. А что такое вообще есть любовь, что лежит в основе преданности двух людей? Каждый из них должен принять важное решение, которое навсегда изменит их жизни.- -Качество видео: BDRip | El.amor.menos.pensado.AKA.An.Unexpected.Love.2018.BDREMUX.1080p.seleZen
Формат видео: AVI
Видео: 720x304 (2.37:1), 24.000 fps, XviD build 73 ~1638 kbps avg, 0.31 bit/pixel
Аудио: 48 kHz, AC3 Dolby Digital, 3/2 (L,C,R,l,r) + LFE ch, ~384 kbps | rus
Аудио: 48 kHz, AC3 Dolby Digital, 3/2 (L,C,R,l,r) + LFE ch, ~384 kbps | spa-[box]Сэмпл[/box]-[box]Сэмпл[/box]-

MediaInfo

Код:Формат : AVI
Формат/Информация : Audio Video Interleave
Профиль формата : OpenDML
Размер файла : 2,19 Гбайт
Продолжительность : 2 ч. 9 м.
Общий поток : 2414 Кбит/сек
Программа кодирования : VirtualDubMod 1.5.10.3 | www.virtualdub-fr.org || (build 2550/release)
Библиотека кодирования : VirtualDubMod build 2550/release
Видео
Идентификатор : 0
Формат : MPEG-4 Visual
Профиль формата : Advanced Simple@L5
Настройки формата : BVOP1 / Custom Matrix
Параметр BVOP формата : 1
Параметр QPel формата : Нет
Параметр GMC формата : Без точки перехода
Параметр матрицы формата : Выборочная
Идентификатор кодека : XVID
Идентификатор кодека/Подсказка : XviD
Продолжительность : 2 ч. 9 м.
Битрейт : 1628 Кбит/сек
Ширина : 720 пикселей
Высота : 304 пикселя
Соотношение сторон : 2,35:1
Частота кадров : 24,000 кадра/сек
Цветовое пространство : YUV
Субдискретизация насыщенности : 4:2:0
Битовая глубина : 8 бит
Тип развёртки : Прогрессивная
Метод сжатия : С потерями
Бит/(Пиксели*Кадры) : 0.310
Размер потока : 1,47 Гбайт (67%)
Библиотека кодирования : XviD 73
Аудио #1
Идентификатор : 1
Формат : AC-3
Формат/Информация : Audio Coding 3
Коммерческое название : Dolby Digital
Идентификатор кодека : 2000
Продолжительность : 2 ч. 9 м.
Вид битрейта : Постоянный
Битрейт : 384 Кбит/сек
Каналы : 6 каналов
Channel layout : L R C LFE Ls Rs
Частота : 48,0 КГц
Частота кадров : 31,250 кадров/сек (1536 SPF)
Битовая глубина : 16 бит
Метод сжатия : С потерями
Размер потока : 356 Мбайт (16%)
Выравнивание : Разделение по промежуткам
Продолжительность промежутка : 42 мс. (1,00 видеокадр)
Время предзагрузки промежутка : 500 мс.
Заголовок : Rus
ServiceKind/String : Complete Main
Аудио #2
Идентификатор : 2
Формат : AC-3
Формат/Информация : Audio Coding 3
Коммерческое название : Dolby Digital
Идентификатор кодека : 2000
Продолжительность : 2 ч. 9 м.
Вид битрейта : Постоянный
Битрейт : 384 Кбит/сек
Каналы : 6 каналов
Channel layout : L R C LFE Ls Rs
Частота : 48,0 КГц
Частота кадров : 31,250 кадров/сек (1536 SPF)
Битовая глубина : 16 бит
Метод сжатия : С потерями
Размер потока : 356 Мбайт (16%)
Выравнивание : Разделение по промежуткам
Продолжительность промежутка : 42 мс. (1,00 видеокадр)
Время предзагрузки промежутка : 500 мс.
Заголовок : Spa
ServiceKind/String : Complete Main

Скриншоты


[cybertorrent.ru].t2210.torrent 
Торрент: Зарегистрирован [ 2019-04-21 16:40 ] · F9C441666919B0A53C96398598217499572BB9A6

Скачать .torrent

Скачать

11 KB

Статус: проверено
Скачан: 0 раз
Размер: 2,19 GB
terms.php
[Профиль] [ЛС]
Показать сообщения:    
Ответить на тему

Текущее время: 18-Авг 14:53

Часовой пояс: UTC ± 0



Вы не можете начинать темы
Вы не можете отвечать на сообщения
Вы не можете редактировать свои сообщения
Вы не можете удалять свои сообщения
Вы не можете голосовать в опросах
Вы не можете прикреплять файлы к сообщениям
Вы можете скачивать файлы