В отражении тебя / Серии: 1-4 из 4 (Дмитрий Магонов) [2019, мелодрама, WEBRip]

Ответить на тему
Статистика раздачи
Размер:  2,47 GB   |    Зарегистрирован:  3 месяца 26 дней   |    Скачан:  0 раз
Сидов:  12  [  0 KB/s  ]   Личеров:  1  [  0 KB/s  ]  
   
 
Автор Сообщение

sss777sss ®

Пол: Не указан

Стаж: 5 месяцев 6 дней

Сообщений: 397

Создавать темы 21-Апр-2019 16:40

[Цитировать]

В отражении тебя
Год выпуска: 2019
Производство: Феникс-фильм
Жанр: мелодрама
Продолжительность: ~00:49:00 серия
Субтитры: нет
Режиссёр: Дмитрий Магонов
В ролях: Светлана Смирнова-Марцинкевич, Андрей Фролов, Родион Галюченко, Марина Куделинская, Любовь Руденко, Евгения Туркова

Описание: Со стороны жизнь Маши – образец счастливой семьи: муж-бизнесмен, сын, престижная работа. Но каждую ночь ей снятся кошмары о прошлом. Одна небольшая ложь в юности, казавшаяся лучшим выходом из трудной ситуации, заводит Машу в лабиринт обмана. Она живет в другом городе под чужим именем и не может сказать правду даже мужу. Счастье Маши оказывается под угрозой, когда она получает по почте письмо из прошлого – из города ее детства, в котором лежит только ее детская фотография... Кому известна ее самая страшная тайна? Маша едет на родину, чтобы найти ответ, а встречает там свою первую любовь – мужчину, к которому у нее еще остались чувства. Кого выберет Маша – мужа или первого возлюбленного? Кто таинственный отправитель письма? Сможет ли Маша победить прошлое и вернуть себе право быть самой собой?

Реклама: Нет.
Кино-театр
Все раздачи сериала
Sample
Качество: WEBRip - Files-x
Формат: AVI
Видео кодек: XviD
Аудио кодек: AC3
Видео: 720x400 (1.80:1), 25 fps, XviD build 73 ~1600 kbps avg, 0.222 bit/pixel
Аудио: 48.0 kHz, AC3 Dolby Digital, 2/0 (L,R) ch, ~ 192 kbps

MI

General
Complete name : D:\В отражении тебя.2019.WEB-DLRip. Files-x\01. В отражении тебя.2019.WEB-DLRip. Files-x.avi
Format : AVI
Format/Info : Audio Video Interleave
File size : 639 MiB
Duration : 49 min 33 s
Overall bit rate : 1 802 kb/s
Writing application : VirtualDubMod 1.5.10.3 | www.virtualdub-fr.org || (build 2550/release)
Writing library : VirtualDubMod build 2550/release
Video
ID : 0
Format : MPEG-4 Visual
Format profile : Advanced Simple@L5
Format settings : BVOP1 / Custom Matrix
Format settings, BVOP : 1
Format settings, QPel : No
Format settings, GMC : No warppoints
Format settings, Matrix : Custom
Codec ID : XVID
Codec ID/Hint : XviD
Duration : 49 min 33 s
Bit rate : 1 601 kb/s
Width : 720 pixels
Height : 400 pixels
Display aspect ratio : 16:9
Frame rate : 25.000 FPS
Color space : YUV
Chroma subsampling : 4:2:0
Bit depth : 8 bits
Scan type : Progressive
Compression mode : Lossy
Bits/(Pixel*Frame) : 0.222
Stream size : 567 MiB (89%)
Writing library : XviD 73
Audio
ID : 1
Format : AC-3
Format/Info : Audio Coding 3
Codec ID : 2000
Duration : 49 min 33 s
Bit rate mode : Constant
Bit rate : 192 kb/s
Channel(s) : 2 channels
Channel positions : Front: L R
Sampling rate : 48.0 kHz
Frame rate : 31.250 FPS (1536 SPF)
Bit depth : 16 bits
Compression mode : Lossy
Stream size : 68.1 MiB (11%)
Alignment : Split accross interleaves
Interleave, duration : 40 ms (1.00 video frame)
Interleave, preload duratio : 500 ms
Service kind : Complete Main

Скриншоты


[cybertorrent.ru].t2212.torrent 
Торрент: Зарегистрирован [ 2019-04-21 16:40 ] · 707611FCD4AF5CEA534FEBBBFBD80E71BFAEF4D3

Скачать .torrent

Скачать

13 KB

Статус: проверено
Скачан: 0 раз
Размер: 2,47 GB
terms.php
[Профиль] [ЛС]
Показать сообщения:    
Ответить на тему

Текущее время: 18-Авг 15:38

Часовой пояс: UTC ± 0



Вы не можете начинать темы
Вы не можете отвечать на сообщения
Вы не можете редактировать свои сообщения
Вы не можете удалять свои сообщения
Вы не можете голосовать в опросах
Вы не можете прикреплять файлы к сообщениям
Вы можете скачивать файлы