Волшебник страны Оз / Волшебник Изумрудного города / Oz-maan taikuri / Trollkarlen fran Oz / Taikuri Oz (Бэрит Ньюман Лунд / Л. Фрэнк Баум / Berit Neumann-Lund / L. Frank Baum) [1965, Финляндия, приключения, VHSRip] VO

Ответить на тему
Статистика раздачи
Размер:  1,37 GB   |    Зарегистрирован:  4 месяца 2 дня   |    Скачан:  0 раз

Полного источника не было: Никогда

   
 
Автор Сообщение

karlll ®

Пол: Не указан

Стаж: 5 месяцев 12 дней

Сообщений: 164

Создавать темы 21-Апр-2019 16:40

[Цитировать]

Волшебник страны Оз / Волшебник Изумрудного города
Oz-maan taikuri / Trollkarlen från Oz / Taikuri Oz

Страна: Финляндия
Жанр: приключения
Продолжительность: 01:15:20
Год выпуска: 1965
Перевод: Одноголосый закадровый
Русские субтитры: нет
Режиссёр: Бэрит Ньюман Лунд /Berit Neumann-Lund/, Л. Фрэнк Баум /L. Frank Baum/
Описание: Приключения девочки, собачки, железного дровосека, пуголы и льва в сказочной стране Оз...
Доп. информация: оцифровал и подготовил karlll
Качество: VHSRip ~семпл~
Формат: AVI
Видео: 688x512 (1.34:1), 25 fps, XviD build 73 ~2361 kbps avg, 0.27 bit/pixel
Аудио: 48 kHz, AC3 Dolby Digital, 2/0 (L,R) ch, ~224 kbps
Субтитры: финские хардсаб

Подробные технические данные

Format : AVI
Format/Info : Audio Video Interleave
File size : 1.37 GiB
Duration : 1 h 15 min
Overall bit rate : 2 596 kb/s
Movie name : Taikuri Oz / Trollkarlen fran Oz / Волшебник страны Оз_1965
Writing application : VirtualDubMod 1.5.10.3 | www.virtualdub-fr.org || (build 2550/release)
Writing library : VirtualDubMod build 2550/release
Copyright : KBC
Video
ID : 0
Format : MPEG-4 Visual
Format profile : Advanced Simple@L5
Format settings : BVOP2 / Custom Matrix
Format settings, BVOP : 2
Format settings, QPel : No
Format settings, GMC : No warppoints
Format settings, Matrix : Custom
Codec ID : XVID
Codec ID/Hint : XviD
Duration : 1 h 15 min
Bit rate : 2 362 kb/s
Width : 688 pixels
Height : 512 pixels
Display aspect ratio : 4:3
Frame rate : 25.000 FPS
Color space : YUV
Chroma subsampling : 4:2:0
Bit depth : 8 bits
Scan type : Progressive
Compression mode : Lossy
Bits/(Pixel*Frame) : 0.268
Stream size : 1.24 GiB (91%)
Writing library : XviD 73
Audio
ID : 1
Format : AC-3
Format/Info : Audio Coding 3
Commercial name : Dolby Digital
Codec ID : 2000
Duration : 1 h 15 min
Bit rate mode : Constant
Bit rate : 224 kb/s
Channel(s) : 2 channels
Channel layout : L R
Sampling rate : 48.0 kHz
Frame rate : 31.250 FPS (1536 SPF)
Bit depth : 16 bits
Compression mode : Lossy
Stream size : 121 MiB (9%)
Alignment : Split accross interleaves
Interleave, duration : 40 ms (1.00 video frame)
Interleave, preload duration : 500 ms
Service kind : Complete Main

Скриншоты

Если ваш рейтинг упадет ниже 0,3, вы не сможете скачивать торренты! Подробнее о рейтинге.

[cybertorrent.ru].t2217.torrent 
Торрент: Зарегистрирован [ 2019-04-21 16:40 ] · 63AB2DE06D000FFF7778359CBF6122D9DBAD2CD8

Скачать .torrent

Скачать

14 KB

Статус: проверено
Скачан: 0 раз
Размер: 1,37 GB
terms.php
[Профиль] [ЛС]
Показать сообщения:    
Ответить на тему

Текущее время: 24-Авг 15:50

Часовой пояс: UTC ± 0



Вы не можете начинать темы
Вы не можете отвечать на сообщения
Вы не можете редактировать свои сообщения
Вы не можете удалять свои сообщения
Вы не можете голосовать в опросах
Вы не можете прикреплять файлы к сообщениям
Вы можете скачивать файлы