Как приручить дракона 3 / How to Train Your Dragon: The Hidden World (Дин ДеБлуа / Dean DeBlois) [2019, США, мультфильм, фэнтези, боевик, комедия, приключения, WEBRip] [Локализованный видеоряд] Dub

Ответить на тему
Статистика раздачи
Размер:  1,46 GB   |    Зарегистрирован:  4 месяца 3 дня   |    Скачан:  0 раз

Полного источника не было: Никогда

   
 
Автор Сообщение

karlll ®

Пол: Не указан

Стаж: 5 месяцев 12 дней

Сообщений: 164

Создавать темы 21-Апр-2019 16:40

[Цитировать]

Как приручить дракона 3 / How to Train Your Dragon: The Hidden World
Страна: США
Жанр: мультфильм, фэнтези, боевик, комедия, приключения,
Год выпуска: 2019
Продолжительность: 01:43:59-Перевод: Профессиональный (дублированный)
Субтитры: нет
Оригинальная аудиодорожка: нет-Режиссер: Дин ДеБлуа / Dean DeBlois-Роли озвучивали: Кейт Бланшетт, Джерард Батлер, Джона Хилл, Кит Харингтон, Кристен Уиг, Джей Барушель, Кристофер Минц-Плассе, Америка Феррера, Оулавюр Дарри Оулафссон, Ф. Мюррэй Абрахам, Крэйг Фергюсон, Джастин Руппл-Описание: Когда-то викинги жили в гармонии с драконами. В те времена они делили радость, горе… и последние штаны. Казалось, что так будет всегда, но появление загадочной Дневной Фурии изменило жизнь острова. И теперь Иккинг и Беззубик столкнутся с безжалостным охотником на драконов, жаждущим уничтожить все, что им дорого.- -Качество видео: WEBRip
Формат видео: AVI
Видео: 720x304 (2.37:1), 24.000 fps, XviD build 73 ~1610 kbps avg, 0.31 bit/pixel
Аудио: 48 kHz, AC3 Dolby Digital, 3/2 (L,C,R,l,r) + LFE ch, ~384 kbps-[box]Сэмпл[/box]-

MediaInfo

Код:Формат : AVI
Формат/Информация : Audio Video Interleave
Размер файла : 1,46 Гбайт
Продолжительность : 1 ч. 43 м.
Общий поток : 2004 Кбит/сек
Название фильма : Как приручить дракона 3_2019_WEBRip
Программа кодирования : VirtualDubMod 1.5.10.3 | www.virtualdub-fr.org || (build 2550/release) VirtualDubMod build 2550/release
Авторское право : порошков
Видео
Идентификатор : 0
Формат : MPEG-4 Visual
Профиль формата : Advanced Simple@L5
Настройки формата : BVOP1 / Custom Matrix
Параметр BVOP формата : 1
Параметр QPel формата : Нет
Параметр GMC формата : Без точки перехода
Параметр матрицы формата : Выборочная
Идентификатор кодека : XVID
Идентификатор кодека/Подсказка : XviD
Продолжительность : 1 ч. 43 м.
Битрейт : 1610 Кбит/сек
Ширина : 720 пикселей
Высота : 304 пикселя
Соотношение сторон : 2,35:1
Частота кадров : 24,000 кадра/сек
Цветовое пространство : YUV
Субдискретизация насыщенности : 4:2:0
Битовая глубина : 8 бит
Тип развёртки : Прогрессивная
Метод сжатия : С потерями
Бит/(Пиксели*Кадры) : 0.307
Размер потока : 1,17 Гбайт (80%)
Библиотека кодирования : XviD 73
Аудио
Идентификатор : 1
Формат : AC-3
Формат/Информация : Audio Coding 3
Коммерческое название : Dolby Digital
Идентификатор кодека : 2000
Продолжительность : 1 ч. 43 м.
Вид битрейта : Постоянный
Битрейт : 384 Кбит/сек
Каналы : 6 каналов
Channel layout : L R C LFE Ls Rs
Частота : 48,0 КГц
Частота кадров : 31,250 кадров/сек (1536 SPF)
Битовая глубина : 16 бит
Метод сжатия : С потерями
Размер потока : 286 Мбайт (19%)
Выравнивание : Разделение по промежуткам
Продолжительность промежутка : 42 мс. (1,00 видеокадр)
Время предзагрузки промежутка : 500 мс.
Язык : Русский
ServiceKind/String : Complete Main

Скриншоты


Если ваш рейтинг упадет ниже 0,3, вы не сможете скачивать торренты! Подробнее о рейтинге.

[cybertorrent.ru].t2219.torrent 
Торрент: Зарегистрирован [ 2019-04-21 16:40 ] · C57FCB34896D5B1372A7E53F90B2F4675FC80EF5

Скачать .torrent

Скачать

15 KB

Статус: проверено
Скачан: 0 раз
Размер: 1,46 GB
terms.php
[Профиль] [ЛС]
Показать сообщения:    
Ответить на тему

Текущее время: 24-Авг 16:43

Часовой пояс: UTC ± 0



Вы не можете начинать темы
Вы не можете отвечать на сообщения
Вы не можете редактировать свои сообщения
Вы не можете удалять свои сообщения
Вы не можете голосовать в опросах
Вы не можете прикреплять файлы к сообщениям
Вы можете скачивать файлы