Прикосновение / Дон / Touch / Dawn (Christopher Houghton / Кристофер Хотон) [2015, Австралия, триллер, драма, детектив, WEB-DLRip] VO (datynet)

Ответить на тему
Статистика раздачи
Размер:  1,43 GB   |    Зарегистрирован:  4 месяца   |    Скачан:  0 раз

Полного источника не было: Никогда

   
 
Автор Сообщение

cyber ®

Пол: Не указан

Стаж: 4 месяца 6 дней

Сообщений: 117

Создавать темы 18-Мар-2019 10:00

[Цитировать]

Прикосновение / Дон / Touch / Dawn
Страна: Австралия
Жанр: триллер, драма, детектив
Год выпуска: 2015
Продолжительность: 01:30:19
Перевод: Одноголосый закадровый datynet - перевод Куценко
Субтитры: нет
Оригинальная аудиодорожка: нет
Режиссер: Christopher Houghton / Кристофер Хотон
В ролях: Лианна Уолсман, Джон Крауч, Онор Ноттл, Лиза Фланаган, Мэтт Дэй, Аарон Картрайт, Эмили Браун, Грег Хаттон, Шейн Коннор, Жаки Филлипс, Зо Лейдлоу, Блейк Ричардсон, Брайан Коулинг, Марк Браун

Описание: Женщина, бегущая от ужасной правды, скрывается в отдаленном городке на холмах со своей маленькой дочерью, пока ее прошлое не выплывает наружу.
Кинопоиск - IMDb
Sample
Качество видео: WEB-DLRip
Формат видео: AVI
Видео: 704x320 (2.20:1), 24.000 fps, XviD build 73 ~2060 kbps avg, 0.38 bit/pixel
Аудио: Russian (AC3, 2 ch, 192 kbps, 16 bits, 48.0 KHz) - VO

MediaInfo

General
Complete name : J:\Dawn 2015 WEB-DLRip.avi
Format : AVI
Format/Info : Audio Video Interleave
File size : 1.43 GiB
Duration : 1 h 30 min
Overall bit rate : 2 262 kb/s
Writing application : VirtualDubMod 1.5.10.3 | www.virtualdub-fr.org || (build 2550/release)
Writing library : VirtualDubMod build 2550/release
Video
ID : 0
Format : MPEG-4 Visual
Format profile : Advanced Simple@L5
Format settings : BVOP1
Format settings, BVOP : 1
Format settings, QPel : No
Format settings, GMC : No warppoints
Format settings, Matrix : Default (MPEG)
Codec ID : XVID
Codec ID/Hint : XviD
Duration : 1 h 30 min
Bit rate : 2 060 kb/s
Width : 704 pixels
Height : 320 pixels
Display aspect ratio : 2.2:1
Frame rate : 24.000 FPS
Color space : YUV
Chroma subsampling : 4:2:0
Bit depth : 8 bits
Scan type : Progressive
Compression mode : Lossy
Bits/(Pixel*Frame) : 0.381
Stream size : 1.30 GiB (91%)
Writing library : XviD 73
Audio
ID : 1
Format : AC-3
Format/Info : Audio Coding 3
Codec ID : 2000
Duration : 1 h 30 min
Bit rate mode : Constant
Bit rate : 192 kb/s
Channel(s) : 2 channels
Channel positions : Front: L R
Sampling rate : 48.0 kHz
Frame rate : 31.250 FPS (1536 SPF)
Bit depth : 16 bits
Compression mode : Lossy
Stream size : 124 MiB (8%)
Alignment : Split accross interleaves
Interleave, duration : 42 ms (1.00 video frame)
Interleave, preload duratio : 500 ms
Service kind : Complete Main

Скриншоты



[cybertorrent.ru].t222.torrent 
Торрент: Зарегистрирован [ 2019-03-18 10:04 ] · 27A1714D1BA9DF74EC9D4E2F0BB473DF75275330

Скачать .torrent

Скачать

15 KB

Статус: проверено
Скачан: 0 раз
Размер: 1,43 GB
terms.php
[Профиль] [ЛС]
Показать сообщения:    
Ответить на тему

Текущее время: 19-Июл 02:00

Часовой пояс: UTC ± 0



Вы не можете начинать темы
Вы не можете отвечать на сообщения
Вы не можете редактировать свои сообщения
Вы не можете удалять свои сообщения
Вы не можете голосовать в опросах
Вы не можете прикреплять файлы к сообщениям
Вы можете скачивать файлы