Это чертово сердце / Dieses bescheuerte Herz (Марк Ротемунд / Marc Rothemund) [2017, Германия, драма, комедия, BDRip-AVC] Dub (iTunes) + Original Deu + Sub (Rus,Deu)

Ответить на тему
Статистика раздачи
Размер:  2,12 GB   |    Зарегистрирован:  3 месяца 25 дней   |    Скачан:  0 раз

Полного источника не было: Никогда

   
 
Автор Сообщение

солнышко ®

Пол: Не указан

Стаж: 5 месяцев 6 дней

Сообщений: 526

Создавать темы 22-Апр-2019 17:07

[Цитировать]

Это чертово сердце / Dieses bescheuerte Herz- Страна: Германия
Жанр: драма, комедия
Год выпуска: 2017
Продолжительность: 01:46:22
Перевод: Профессиональный (дублированный) iTunes
Субтитры: русские, немецкие
Оригинальная аудиодорожка: немецкий
Режиссер: Марк Ротемунд / Marc Rothemund
В ролях: Элиас ЭмБарек, Филип Шварц, Надина Вриц, Уве Пройсс, Лиза Биттер, Юрген Тонкель, Бруно Саутер, Лу Бишофф, Себастьян Герольд, Ким Гиршнер
Описание: Единственное занятие Ленни — бесконечные вечеринки с друзьями. Он привык, что любой его каприз оплачивает отец. В одном городе с ним живет 15-летний Дэвид, который почти всё своё время проводит дома. У Дэвида врожденный порок сердца и прогнозы врачей не слишком утешительны. Отец Ленни, устав от безделья сына, поручает тому заботу о Дэвиде. Неожиданно эти двое становятся друг для друга незаменимыми. Ленни помогает парню ощутить вкус к жизни и осуществить мечты, а Дэвид, в свою очередь, дает ему возможность почувствовать ответственность за свою жизнь и жизнь тех, кто рядом.
Сэмпл: http://sendfile.su/1490114

Качество видео: BDRip-AVC (Dieses.Bescheuerte.Herz.2017.BDRemux.TeamHD)
Формат видео: MKV
Видео: x264, 1144x478 (2.40:1) 24 fps, ~2012 kbps, 0,153 bit/pixel
Аудио 1: 48 kHz, AC3 Dolby Digital, 3/2 (L,C,R,l,r) + LFE ch, ~384 kbps [русский, iTunes Russia]
Аудио 2: 48 kHz, AC3 Dolby Digital, 3/2 (L,C,R,l,r) + LFE ch, ~448 kbps [немецкий]
Формат субтитров: softsub (SRT)

MediaInfo

General
Unique ID : 121333523835137222158262662506427644713 (0x5B47FC9723CE30EBE31C38976EE6FB29)
Format : Matroska
Format version : Version 4 / Version 2
File size : 2.12 GiB
Duration : 1h 46mn
Overall bit rate : 2 847 Kbps
Encoded date : UTC 2019-04-20 11:20:55
Writing application : mkvmerge v33.0.0 ('A Little Bit of Madness') 64-bit
Writing library : libebml v1.3.7 + libmatroska v1.5.0
Video #1
ID : 1
Format : AVC
Format/Info : Advanced Video Codec
Format profile : High@L4.1
Format settings, CABAC : Yes
Format settings, ReFrames : 12 frames
Codec ID : V_MPEG4/ISO/AVC
Duration : 1h 46mn
Bit rate : 2 012 Kbps
Width : 1 144 pixels
Height : 478 pixels
Display aspect ratio : 2.40:1
Frame rate mode : Constant
Frame rate : 24.000 fps
Color space : YUV
Chroma subsampling : 4:2:0
Bit depth : 8 bits
Scan type : Progressive
Bits/(Pixel*Frame) : 0.153
Stream size : 1.50 GiB (71%)
Writing library : x264 core 157 r2935 545de2f
Encoding settings : cabac=1 / ref=12 / deblock=1:-3:-2 / analyse=0x3:0x133 / me=umh / subme=10 / psy=1 / psy_rd=1.00:0.00 / mixed_ref=1 / me_range=32 / chroma_me=1 / trellis=2 / 8x8dct=1 / cqm=0 / deadzone=21,11 / fast_pskip=0 / chroma_qp_offset=-2 / threads=6 / lookahead_threads=1 / sliced_threads=0 / nr=0 / decimate=1 / interlaced=0 / bluray_compat=0 / constrained_intra=0 / bframes=11 / b_pyramid=2 / b_adapt=2 / b_bias=0 / direct=1 / weightb=1 / open_gop=0 / weightp=2 / keyint=250 / keyint_min=23 / scenecut=40 / intra_refresh=0 / rc=crf / mbtree=0 / crf=18.9 / qcomp=0.65 / qpmin=0 / qpmax=69 / qpstep=4 / ip_ratio=1.40 / pb_ratio=1.30 / aq=3:0.90
Language : English
Default : Yes
Forced : No
Audio #2
ID : 2
Format : AC-3
Format/Info : Audio Coding 3
Mode extension : CM (complete main)
Format settings, Endianness : Big
Codec ID : A_AC3
Duration : 1h 46mn
Bit rate mode : Constant
Bit rate : 384 Kbps
Channel(s) : 6 channels
Channel positions : Front: L C R, Side: L R, LFE
Sampling rate : 48.0 KHz
Frame rate : 31.250 fps (1536 spf)
Compression mode : Lossy
Stream size : 292 MiB (13%)
Language : Russian
Default : Yes
Forced : No
Audio #3
ID : 3
Format : AC-3
Format/Info : Audio Coding 3
Mode extension : CM (complete main)
Format settings, Endianness : Big
Codec ID : A_AC3
Duration : 1h 46mn
Bit rate mode : Constant
Bit rate : 448 Kbps
Channel(s) : 6 channels
Channel positions : Front: L C R, Side: L R, LFE
Sampling rate : 48.0 KHz
Frame rate : 31.250 fps (1536 spf)
Compression mode : Lossy
Stream size : 341 MiB (16%)
Language : German
Default : No
Forced : No
Text #4
ID : 4
Format : UTF-8
Codec ID : S_TEXT/UTF8
Codec ID/Info : UTF-8 Plain Text
Duration : 1h 41mn
Bit rate : 90 bps
Count of elements : 1339
Stream size : 66.9 KiB (0%)
Language : Russian
Default : No
Forced : No
Text #5
ID : 5
Format : UTF-8
Codec ID : S_TEXT/UTF8
Codec ID/Info : UTF-8 Plain Text
Duration : 1h 45mn
Bit rate : 56 bps
Count of elements : 1340
Stream size : 44.1 KiB (0%)
Language : German
Default : No
Forced : No

лог

raw [info]: 1144x478p 1:1 @ 10000000/416667 fps (cfr)
x264 [info]: using SAR=1/1
x264 [info]: using cpu capabilities: MMX2 SSE2Fast SSSE3 SSE4.2 AVX XOP FMA3 BMI1
x264 [info]: profile High, level 4.1, 4:2:0, 8-bit
x264 [info]: frame I:1878 Avg QP:16.78 size: 62710
x264 [info]: frame P:34109 Avg QP:18.40 size: 22104
x264 [info]: frame B:117184 Avg QP:21.14 size: 6262
x264 [info]: consecutive B-frames: 3.2% 2.8% 8.1% 22.2% 17.8% 33.6% 5.4% 1.8% 1.6% 1.8% 0.6% 1.2%
x264 [info]: mb I I16..4: 7.8% 71.4% 20.8%
x264 [info]: mb P I16..4: 1.6% 12.1% 1.9% P16..4: 39.3% 20.4% 14.3% 0.5% 0.2% skip: 9.6%
x264 [info]: mb B I16..4: 0.1% 0.7% 0.1% B16..8: 37.6% 9.5% 2.5% direct: 4.0% skip:45.4% L0:44.0% L1:45.1% BI:10.9%
x264 [info]: 8x8 transform intra:75.7% inter:64.7%
x264 [info]: coded y,uvDC,uvAC intra: 82.7% 78.0% 56.4% inter: 18.1% 12.3% 1.9%
x264 [info]: i16 v,h,dc,p: 39% 16% 6% 40%
x264 [info]: i8 v,h,dc,ddl,ddr,vr,hd,vl,hu: 11% 10% 8% 9% 13% 13% 12% 12% 12%
x264 [info]: i4 v,h,dc,ddl,ddr,vr,hd,vl,hu: 12% 9% 4% 10% 15% 14% 13% 11% 12%
x264 [info]: i8c dc,h,v,p: 39% 23% 20% 18%
x264 [info]: Weighted P-Frames: Y:12.6% UV:10.0%
x264 [info]: ref P L0: 48.7% 10.6% 16.9% 6.1% 4.9% 3.4% 3.0% 1.6% 1.4% 1.1% 1.1% 1.0% 0.1% 0.0%
x264 [info]: ref B L0: 72.6% 11.4% 5.8% 3.0% 2.1% 1.7% 1.4% 0.8% 0.7% 0.4% 0.2%
x264 [info]: ref B L1: 93.8% 6.2%
x264 [info]: kb/s:2012.49
x264 [total]: encoded 153171 frames, 7.12 fps, 2012.49 kb/s

Скриншоты


[cybertorrent.ru].t2232.torrent 
Торрент: Зарегистрирован [ 2019-04-22 17:07 ] · 4B1DCE1500D1DE72C73442855A3F0DA84825ECC6

Скачать .torrent

Скачать

11 KB

Статус: проверено
Скачан: 0 раз
Размер: 2,12 GB
terms.php
[Профиль] [ЛС]
Показать сообщения:    
Ответить на тему

Текущее время: 18-Авг 15:16

Часовой пояс: UTC ± 0



Вы не можете начинать темы
Вы не можете отвечать на сообщения
Вы не можете редактировать свои сообщения
Вы не можете удалять свои сообщения
Вы не можете голосовать в опросах
Вы не можете прикреплять файлы к сообщениям
Вы можете скачивать файлы