Дело Моро / Il caso Moro (Джузеппе Феррара / Giuseppe Ferrara) [1986, Италия, драма, криминал, история, DVDRip] Original Ita + Sub Rus

Ответить на тему
Статистика раздачи
Размер:  1,34 GB   |    Зарегистрирован:  3 месяца 26 дней   |    Скачан:  0 раз

Полного источника не было: Никогда

   
 
Автор Сообщение

serzh ®

Пол: Не указан

Стаж: 5 месяцев 6 дней

Сообщений: 348

Создавать темы 22-Апр-2019 17:07

[Цитировать]

Дело Моро / Il caso Moro
Страна: Италия
Жанр: драма, криминал, история
Год выпуска: 1986
Продолжительность: 01:52:48
Перевод: Субтитры (Анастасия Лавренова / Socially critical cinema)
Субтитры: русские
Оригинальная аудиодорожка: итальянский
Режиссер: Джузеппе Феррара / Giuseppe Ferrara
В ролях: Джан Мария Волонте
Маттиа Сбраджа
Бруно Дзанин
Консуэло Феррара
Энрика Мария Модуньо
Энрика Россо
Маурицио Донадони
Стефано Аббати
Данило Маттеи
Массимо Тедде
Описание: Политический детектив, рассказывающий об истории жизни и политической карьеры реального лица — премьер-министра Италии Альдо Моро, который 16 марта 1978 года был похищен средь бела дня на одной из улиц Рима террористами из группировки «Красные бригады», а через некоторое время и зверски ими убит.
Доп. информация: https://www.kinopoisk.ru/film/73631/
Сэмпл: http://sendfile.su/1490141
Качество видео: DVDRip найден в сети
Формат видео: AVI
Видео: 720x400 (1.80:1), 25 fps, DivX Codec 5.2.1 build 1328 ~1690 kbps avg, 0.23 bit/pixel
Аудио: 48 kHz, MPEG Layer 3, 2 ch, ~256.00 kbps avg
Формат субтитров: softsub (SRT)
Доп. информация о субтитрах: внешние

MediaInfo

General
Полное имя : D:\Il.Caso.Moro.DVDRip.720p\Il.Caso.Moro.DVDRip.720p.avi
Формат : AVI
Формат/Информация : Audio Video Interleave
Размер файла : 1.34 GiB
Продолжительность : 1 h 52 min
Общий поток : 1 705 kb/s
Video
Идентификатор : 0
Формат : MPEG-4 Visual
Параметр BVOP формата : No
Параметр QPel формата : No
Параметр GMC формата : No warppoints
Параметр матрицы формата : Default (H.263)
Идентификатор кодека : DX50
Идентификатор кодека/Подсказка : DivX 5
Продолжительность : 1 h 52 min
Битрейт : 1 436 kb/s
Номинальный битрейт : 6 951 kb/s
Ширина : 720 pixels
Высота : 400 pixels
Соотношение сторон : 16:9
Частота кадров : 25.000 FPS
Цветовое пространство : YUV
Субдискретизация насыщенности : 4:2:0
Битовая глубина : 8 bits
Тип развёртки : Progressive
Метод сжатия : Lossy
Бит/(Пиксели*Кадры) : 0.199
Размер потока : 1.13 GiB (84%)
Заголовок : NeoVideo92CF
Библиотека кодирования : DivX 5.2.1 (WaffleDay) (UTC 2004-09-08)
Audio
Идентификатор : 1
Формат : MPEG Audio
Версия формата : Version 1
Профиль формата : Layer 3
Настройки формата : Joint stereo / MS Stereo
Идентификатор кодека : 55
Идентификатор кодека/Подсказка : MP3
Продолжительность : 1 h 52 min
Вид битрейта : Constant
Битрейт : 256 kb/s
Каналы : 2 channels
Частота : 48.0 kHz
Метод сжатия : Lossy
Размер потока : 207 MiB (15%)
Выравнивание : Split accross interleaves
Продолжительность промежутка : 24 ms (0.60 video frame)
Заголовок : NeoSound92CF0
General
Полное имя : D:\Il.Caso.Moro.DVDRip.720p\Il.Caso.Moro.DVDRip.720p.srt
Размер файла : 95.4 KiB

Скриншот c названием фильма

Пример субтитров

1
00:00:13,900 --> 00:00:19,020
Рим, 16 марта 1978.
Парламент собирается выбрать новое правительство,
2
00:00:19,020 --> 00:00:25,020
в состав которого впервые за 40 лет
войдет Коммунистическая партия.
3
00:00:25,020 --> 00:00:30,600
Идейным вдохновителем правительства был
глава Христианско-Демократической партии Альдо Моро
4
00:01:07,250 --> 00:01:10,140
Агнесса, поторопись или я пойду без тебя!
5
00:01:10,140 --> 00:01:13,580
Дай хотя бы надену куртку.
Мама, пока, я пошла! - Всем пока!
6
00:01:13,580 --> 00:01:16,220
До свидания, не гуляйте слишком поздно.
7
00:01:18,060 --> 00:01:23,020
Лука, ты остаёшься тут, хорошо?
8
00:01:23,300 --> 00:01:25,700
- Пока, Мама! - Пока!
9
00:01:26,260 --> 00:01:30,020
Лука остаётся тут, и это не обсуждается.
10
00:01:30,020 --> 00:01:31,380
Это несправедливо, мама. Да, моя нога
11
00:01:31,400 --> 00:01:33,380
ещё болит, но Лука должен вернуться ко мне.
12
00:01:33,380 --> 00:01:36,380
Он постоянно с вами, он скоро забудет свой дом.
13
00:01:36,520 --> 00:01:39,740
Лука, иди к маме. Лука, остановись, наконец.
14
00:01:43,060 --> 00:01:44,500
Дедушка.
15
00:01:45,060 --> 00:01:47,300
О, Лука...
16
00:01:48,140 --> 00:01:49,300
Ну что ж....
17
00:01:50,060 --> 00:01:52,060
Посмотрим...
18
00:01:52,980 --> 00:01:57,860
Ты помнишь сказку об охотнике и стае волков?
19
00:01:57,860 --> 00:02:00,000
Какие глаза у охотника?
20
00:02:00,200 --> 00:01:59,500
- Голубые.
21
00:02:04,180 --> 00:02:06,000
А какого цвета волки? Чёрные.
22
00:02:16,620 --> 00:02:18,980
Что у нас со временем?
23
00:02:20,220 --> 00:02:22,040
Осталось 50 минут
24
00:02:23,040 --> 00:02:26,260
- Передавай от меня привет
синьоре Моро. - Да, да
[cybertorrent.ru].t2233.torrent 
Торрент: Зарегистрирован [ 2019-04-22 17:07 ] · 345BC1AADFB3A1AE1F78DA9951F900026345B7E9

Скачать .torrent

Скачать

14 KB

Статус: проверено
Скачан: 0 раз
Размер: 1,34 GB
terms.php
[Профиль] [ЛС]
Показать сообщения:    
Ответить на тему

Текущее время: 19-Авг 05:27

Часовой пояс: UTC ± 0



Вы не можете начинать темы
Вы не можете отвечать на сообщения
Вы не можете редактировать свои сообщения
Вы не можете удалять свои сообщения
Вы не можете голосовать в опросах
Вы не можете прикреплять файлы к сообщениям
Вы можете скачивать файлы