Игра престолов / Game of Thrones / Сезон: 8 / Серии: 1 из 6 (Дэвид Наттер, Мигель Сапочник, Дэвид Бениофф и Д. Б. Уайсс) [2019, США, Великобритания, фэнтези, драма, мелодрама, приключения, WEB-DLRip] MVO (NewStudio) + Original + Sub (Rus, Eng)

Ответить на тему
Статистика раздачи
Размер:  844 MB   |    Зарегистрирован:  3 месяца 24 дня   |    Скачан:  0 раз
Сидов:  1  [  0 KB/s  ]  
   
 
Автор Сообщение

Рамфоринх ®

Пол: Не указан

Стаж: 5 месяцев 6 дней

Сообщений: 347

Создавать темы 23-Апр-2019 15:33

[Цитировать]

Игра престолов / Game of Thrones
Год выпуска: 2019
Страна: США, Великобритания
Жанр: фэнтези, драма, мелодрама, приключения
Продолжительность: ~01:00:00
Перевод: Профессиональный (многоголосый закадровый) NewStudio
Режиссёр: Дэвид Наттер, Мигель Сапочник, Дэвид Бениофф и Д. Б. Уайсс
В ролях: Питер Динклэйдж, Николай Костер-Вальдау, Лина Хиди, Эмилия Кларк, Кит Харингтон, Эйдан Гиллен, Софи Тёрнер, Мэйси Уильямс, Альфи Аллен, Айзек Хэмпстед-Райт, Рори Макканн, Лиам Каннингем, Джон Брэдли, Натали Дормер, Кэрис ван Хаутен, Джером Флинн, Конлет Хилл, Кристофер Хивью, Ханна Мюррей, Гвендолин Кристи, Иван Реон, Индира Варма, Михиль Хёйсман, Натали Эммануэль, Том Влашиха, Дин-Чарльз Чэпмен, Майкл Макэлхаттон, Джонатан Прайс, Иэн Глен и др.
Описание: «Игра престолов» новый сериал HBO, основанный на бестселлерах Джорджа Р.Р. Мартина. В мире, где лето и зимы длятся десятилетиями, на кону корона Вестероса. Предательство, похоть, интриги и сверхъестественные силы сотрясают все четыре стороны Королевства — от плетущего интриги юга, диких восточных земель, до замерзшего севера и древней Стены, что защищает королевство от тьмы за нею. Короли и королевы, рыцари и мятежники, лжецы и благородные люди борются за власть в кровавом сражении за Железный Трон.
Информационные ссылки: IMDb || Кинопоиск
Качество: WEB-DLRip
Видео: 720x400 (1.80:1), 23.976 fps, XviD build 50 ~1498 kbps avg, 0.22 bit/pixel
Аудио 1: 48 kHz, MPEG Layer 3, 2 ch, ~192.00 kbps avg | NewStudio
Аудио 2: 48 kHz, MPEG Layer 3, 2 ch, ~192.00 kbps avg | Original
Субтитры 1: Русские (полные от 7kingdoms)
Субтитры 2: Английские (полные)
Реклама: Отсутствует

О релизе

Озвучка взята из раздачи kocakn123. Спасибо за труд

Список серий

01. Winterfell

MediaInfo

Общее
Полное имя : D:\Видео\Раздачи\Game of Thrones (S08)\Game.of.Thrones.s08e01.avi
Формат : AVI
Формат/Информация : Audio Video Interleave
Размер файла : 844 Мбайт
Продолжительность : 1 ч. 2 м.
Общий поток : 1898 Кбит/сек
Программа кодирования : VirtualDubMod 1.5.10.2 (build 2540/release)
Библиотека кодирования : VirtualDubMod build 2540/release
Видео
Идентификатор : 0
Формат : MPEG-4 Visual
Профиль формата : Advanced Simple@L5
Настройки формата : BVOP1
Параметр BVOP формата : 1
Параметр QPel формата : Нет
Параметр GMC формата : Без точки перехода
Параметр матрицы формата : Default (H.263)
Идентификатор кодека : XVID
Идентификатор кодека/Подсказка : XviD
Продолжительность : 1 ч. 2 м.
Битрейт : 1500 Кбит/сек
Ширина : 720 пикселей
Высота : 400 пикселей
Соотношение сторон : 16:9
Частота кадров : 23,976 (24000/1001) кадра/сек
Цветовое пространство : YUV
Субдискретизация насыщенности : 4:2:0
Битовая глубина : 8 бит
Тип развёртки : Прогрессивная
Метод сжатия : С потерями
Бит/(Пиксели*Кадры) : 0.217
Размер потока : 667 Мбайт (79%)
Библиотека кодирования : XviD 1.2.1 (UTC 2008-12-04)
Аудио #1
Идентификатор : 1
Формат : MPEG Audio
Версия формата : Version 1
Профиль формата : Layer 3
Настройки формата : Joint stereo / MS Stereo
Идентификатор кодека : 55
Идентификатор кодека/Подсказка : MP3
Продолжительность : 1 ч. 2 м.
Вид битрейта : Постоянный
Битрейт : 192 Кбит/сек
Каналы : 2 канала
Частота : 48,0 КГц
Частота кадров : 41,667 кадра/сек (1152 SPF)
Метод сжатия : С потерями
Размер потока : 85,4 Мбайт (10%)
Выравнивание : Соединение по промежуткам
Продолжительность промежутка : 42 мс. (1,00 видеокадр)
Время предзагрузки промежутка : 504 мс.
Аудио #2
Идентификатор : 2
Формат : MPEG Audio
Версия формата : Version 1
Профиль формата : Layer 3
Настройки формата : Joint stereo / MS Stereo
Идентификатор кодека : 55
Идентификатор кодека/Подсказка : MP3
Продолжительность : 1 ч. 2 м.
Вид битрейта : Постоянный
Битрейт : 192 Кбит/сек
Каналы : 2 канала
Частота : 48,0 КГц
Частота кадров : 41,667 кадра/сек (1152 SPF)
Метод сжатия : С потерями
Размер потока : 85,4 Мбайт (10%)
Выравнивание : Соединение по промежуткам
Продолжительность промежутка : 42 мс. (1,00 видеокадр)
Время предзагрузки промежутка : 504 мс.

Раздача ведется путем добавления новых серий

Внимание! Раздача ведётся путём добавления новых серий; при каждом добавлении создаётся новый торрент. Чтобы начать докачку новой серии, пользователям необходимо сделать следующее:
(1) остановить скачивание,
(2) удалить старый торрент у себя из клиента (старые серии удалять не надо),
(3) скачать новый торрент и запустить его у себя в клиенте вместо старого, при этом указать клиенту путь в старую папку куда и должно происходить скачивание новых серий.
Ваш клиент при этом должен произвести хеширование (проверку) старой папки (если не производит сам - помогите ему сделать это), и будет докачивать только те серии которых у вас ещё нет. Старые серии при этом не удаляются, а продолжают раздаваться!
Eсли вы уже удалили старые серии, то предотвратить повторную закачку старых серий можно, отжав галочку в соответствующих местах при запуске нового торрента. По возможности, желательно не удалять старые серии как можно дольше чтобы релизёр не столько продолжал раздавать старые серии, а смог сконцентрироваться на новых.

Скриншоты

Предыдущие и альтернативные раздачи
[cybertorrent.ru].t2255.torrent 
Торрент: Зарегистрирован [ 2019-04-23 15:33 ] · 928BFD79FDAEFC5570E9F64DE59B4C3D6923950B

Скачать .torrent

Скачать

17 KB

Статус: проверено
Скачан: 0 раз
Размер: 844 MB
terms.php
[Профиль] [ЛС]
Показать сообщения:    
Ответить на тему

Текущее время: 18-Авг 15:24

Часовой пояс: UTC ± 0



Вы не можете начинать темы
Вы не можете отвечать на сообщения
Вы не можете редактировать свои сообщения
Вы не можете удалять свои сообщения
Вы не можете голосовать в опросах
Вы не можете прикреплять файлы к сообщениям
Вы можете скачивать файлы