Карстен и Петра на сафари / Karsten og Petra på safari (Арни Линдтнер Нэсс / Arne Lindtner Næss) [2015, Норвегия, семейный, комедия, HDRip] MVO (Игмар)

Ответить на тему
Статистика раздачи
Размер:  1,38 GB   |    Зарегистрирован:  4 месяца 2 дня   |    Скачан:  0 раз

Полного источника не было: Никогда

   
 
Автор Сообщение

cyber ®

Пол: Не указан

Стаж: 4 месяца 8 дней

Сообщений: 119

Создавать темы 18-Мар-2019 10:00

[Цитировать]

Карстен и Петра на сафари / Karsten og Petra på safari
Страна: Норвегия
Жанр: Семейный, Комедия
Год выпуска: 2015
Продолжительность: 01:20:00
Перевод: Профессиональный (многоголосый закадровый) ИГМАР
Субтитры: нет
Оригинальная аудиодорожка: нет
Режиссер: Арни Линдтнер Нэсс / Arne Lindtner Næss
В ролях: Нора Амундсен, Хильдия Люси Асборнсен, Фелисия Формоэ, Янне Формоэ, Торбьорн Харр, Думисани Мбебе и другие.
Описание: Карстен и Петра отправляются в Африку вместе с мамой Петры, чтобы помочь знакомому ветеринару.
Доп. информация: Это второй фильм Карстена и Петры в России с Русской озвучкой !

Сэмпл: https://cloud.mail.ru/public/DoJc/s6WWsVeWk
Качество видео: HDTVRip
Формат видео: AVI
Видео: 720х400, 16:9, 25 fps, Lavc55.59.101, 2197 kbps
Аудио: 44.1 KHz, MP3, 2 ch, 256 kbps

MediaInfo

КАРСТЕН и ПЕТРА на САФАРИ.avi
Format : AVI
Format/Info : Audio Video Interleave
Format profile : OpenDML
File size : 1.38 GiB
Duration : 1h 20mn
Overall bit rate : 2 467 Kbps
Writing application : Lavf55.37.101
Video
ID : 0
Format : MPEG-4 Visual
Format profile : Simple@L1
Format settings, BVOP : No
Format settings, QPel : No
Format settings, GMC : No warppoints
Format settings, Matrix : Default (H.263)
Codec ID : DX50
Codec ID/Hint : DivX 5
Duration : 1h 20mn
Bit rate : 2 197 Kbps
Width : 720 pixels
Height : 400 pixels
Display aspect ratio : 16:9
Frame rate : 25.000 fps
Color space : YUV
Chroma subsampling : 4:2:0
Bit depth : 8 bits
Scan type : Progressive
Compression mode : Lossy
Bits/(Pixel*Frame) : 0.305
Stream size : 1.23 GiB (89%)
Writing library : Lavc55.59.101
Audio
ID : 1
Format : MPEG Audio
Format version : Version 1
Format profile : Layer 3
Mode : Joint stereo
Codec ID : 55
Codec ID/Hint : MP3
Duration : 1h 20mn
Bit rate mode : Constant
Bit rate : 256 Kbps
Channel(s) : 2 channels
Sampling rate : 44.1 KHz
Compression mode : Lossy
Stream size : 147 MiB (10%)
Alignment : Aligned on interleaves
Interleave, duration : 26 ms (0.65 video frame)

Скриншот c названием фильма

[cybertorrent.ru].t226.torrent 
Торрент: Зарегистрирован [ 2019-03-18 10:04 ] · 38E4404FB8EEB85A93B29791AB44497821BF245D

Скачать .torrent

Скачать

14 KB

Статус: проверено
Скачан: 0 раз
Размер: 1,38 GB
terms.php
[Профиль] [ЛС]
Показать сообщения:    
Ответить на тему

Текущее время: 21-Июл 02:07

Часовой пояс: UTC ± 0



Вы не можете начинать темы
Вы не можете отвечать на сообщения
Вы не можете редактировать свои сообщения
Вы не можете удалять свои сообщения
Вы не можете голосовать в опросах
Вы не можете прикреплять файлы к сообщениям
Вы можете скачивать файлы