Подсудимый / Серии: 1-2 из 16 (Максим Бриус) [2019, детектив, драма, WEBRip 1080p]

Ответить на тему
Статистика раздачи
Размер:  4,19 GB   |    Зарегистрирован:  4 месяца 25 дней   |    Скачан:  0 раз
Сидов:  1  [  0 KB/s  ]  
   
 
Автор Сообщение

sss777sss ®

Пол: Не указан

Стаж: 6 месяцев 6 дней

Сообщений: 423

Создавать темы 23-Апр-2019 15:32

[Цитировать]

Подсудимый
Год выпуска: 2019
Производство: Триикс Медиа
Жанр: детектив, драма
Продолжительность: ~00:49:00 серия
Субтитры: нет
Режиссёр: Максим Бриус
В ролях: Дмитрий Паламарчук, Пётр Рыков, Елена Вожакина, Андрей Терентьев, Владимир Литвинов, Антон Гуляев, Мария Русских, Андрей Марусин, Александр Рыбаков, Игорь Денисов, Владимир Чернышов, Вадим Бурлаков, Пётр Терещенко, Андрей Аладьин, Виталий Бисеров, Руслан Китайгородский
Описание: Главный герой – следователь Следственного Комитета Андрей Климов отказывается от выгодных предложений работы в частных компаниях или продвижения по карьерной лестнице, так как считает своей целью не рутинную «бумажную» работу в качестве коррумпированного чиновника, а служение высшим идеалам: торжеству справедливости, разоблачению преступников вне зависимости от их финансового благополучия и положения в обществе. Чётко зная законы и требуя неукоснительного их исполнения, он не идёт на уступки даже самым влиятельным и богатым людям города.У него дружная семья, любимая супруга поддерживает его во всех начинаниях и разделяет его убеждения и стремления. Но, уснув однажды у себя дома, герой просыпается в тюремной камере, обвиняемый в убийстве жены и дочери. Между последними воспоминаниями и этим днем прошло 4 месяца, которые полностью стёрты из его памяти.

Реклама: Нет.
Кинопоиск
Все раздачи сериала
Sample
Качество: WEBRip 1080p - Nikolspup (ExKinoRay)
Формат: MKV
Видео кодек: H.264
Аудио кодек: AC3
Видео: MPEG4 AVC Video, H264, 16:9, 1920x1080, 25 fps, ~6000 kbps, 0.116 bit/pixel
Аудио: AC3 Dolby Digital, 48.0 kHz, 2/0 (L,R) ch, 192 kbps

Внимание! Раздача ведётся путём добавления новых серий

Раздача ведётся путём добавления новых серий, при каждом добавлении создаётся новый торрент. Чтобы начать докачку новой серии, пользователям необходимо сделать следующее:
- Остановить скачивание.
- Удалить старый торрент у себя из клиента (старые серии удалять не надо).
- Скачать новый торрент и запустить его у себя в клиенте вместо старого, при этом указать клиенту путь в старую папку куда и должно происходить скачивание новых серий.
Ваш клиент при этом должен произвести хеширование (проверку) старой папки (если не производит сам - помогите ему сделать это), и будет докачивать только те серии которых у вас ещё нет. Старые серии при этом не удаляются, а продолжают раздаваться!
Если вы уже удалили старые серии, то предотвратить повторную закачку старых серий можно, отжав галочку в соответствующих местах при запуске нового торрента. По возможности, желательно не удалять старые серии как можно дольше, чтобы релизер не столько продолжал раздавать старые серии, а смог сконцентрироваться на новых.

MI

General
Unique ID : 216014900944352445822293368251438820184 (0xA282F4E4CD930D6FB5D83998269B6B58)
Complete name : D:\Podsudimyy.2019.WEB-DL.(1080p).ExKinoRay\Podsudimyy.(01.seriya).2019.WEB-DL.(1080p).ExKinoRay.mkv
Format : Matroska
Format version : Version 4 / Version 2
File size : 2.11 GiB
Duration : 49 min 0 s
Overall bit rate mode : Constant
Overall bit rate : 6 170 kb/s
Encoded date : UTC 2019-04-22 20:15:35
Writing application : mkvmerge v7.8.0 ('River Man') 32bit built on Mar 27 2015 16:18:02
Writing library : libebml v1.3.1 + libmatroska v1.4.2
Video
ID : 1
Format : AVC
Format/Info : Advanced Video Codec
Format profile : High@L4.1
Format settings : 2 Ref Frames
Format settings, CABAC : No
Format settings, ReFrames : 2 frames
Codec ID : V_MPEG4/ISO/AVC
Duration : 49 min 0 s
Bit rate mode : Constant
Bit rate : 6 000 kb/s
Width : 1 920 pixels
Height : 1 080 pixels
Display aspect ratio : 16:9
Frame rate mode : Constant
Frame rate : 25.000 FPS
Standard : PAL
Color space : YUV
Chroma subsampling : 4:2:0
Bit depth : 8 bits
Scan type : Progressive
Bits/(Pixel*Frame) : 0.116
Stream size : 2.05 GiB (97%)
Default : Yes
Forced : No
Color range : Limited
Color primaries : BT.709
Transfer characteristics : BT.709
Matrix coefficients : BT.709
Audio
ID : 2
Format : AC-3
Format/Info : Audio Coding 3
Codec ID : A_AC3
Duration : 49 min 0 s
Bit rate mode : Constant
Bit rate : 192 kb/s
Channel(s) : 2 channels
Channel positions : Front: L R
Sampling rate : 48.0 kHz
Frame rate : 31.250 FPS (1536 SPF)
Bit depth : 16 bits
Compression mode : Lossy
Stream size : 67.3 MiB (3%)
Language : Russian
Service kind : Complete Main
Default : Yes
Forced : No

Скриншоты


[cybertorrent.ru].t2263.torrent 
Торрент: Зарегистрирован [ 2019-04-23 15:33 ] · F34D0A25873F88509CD2EA1540700B7A20F5E3FB

Скачать .torrent

Скачать

22 KB

Статус: проверено
Скачан: 0 раз
Размер: 4,19 GB
terms.php
[Профиль] [ЛС]
Показать сообщения:    
Ответить на тему

Текущее время: 19-Сен 04:54

Часовой пояс: UTC ± 0



Вы не можете начинать темы
Вы не можете отвечать на сообщения
Вы не можете редактировать свои сообщения
Вы не можете удалять свои сообщения
Вы не можете голосовать в опросах
Вы не можете прикреплять файлы к сообщениям
Вы можете скачивать файлы

Партнеры

Выражаем благодарность всем людям, внесшим вклад в наш сайт в далёком прошлом. Мы помним Вас, гордимся Вами и ждём Вас обратно!

Интересное в сети