Ночь в Париже / Открыто ночью / Ouvert la nuit / Open at Night (Эдуар Баэр / Edouard Baer) [2016, Франция, трагикомедия, DVB] Original (Fra) + Sub (Rus, Eng, Fra)

Ответить на тему
Статистика раздачи
Размер:  2,14 GB   |    Зарегистрирован:  4 месяца 25 дней   |    Скачан:  0 раз

Полного источника не было: Никогда

   
 
Автор Сообщение

солнышко ®

Пол: Не указан

Стаж: 6 месяцев 6 дней

Сообщений: 565

Создавать темы 23-Апр-2019 15:32

[Цитировать]

Открыто ночью
Ouvert la nuit- Страна: Франция
Жанр: трагикомедия
Год выпуска: 2016
Продолжительность: 01:32:53Перевод: Субтитры (русский перевод компании Hiventy)
Субтитры: русские, английские, французские, французские-телетекст, нидерландские, румынские, испанские
Оригинальная аудиодорожка: французский
Режиссер: Эдуар Баэр / Edouard Baer
В ролях: Эдуард Баэр / Edouard Baer (Louis Steiner, dit Luigi), Сабрина Уазани / Sabrina Ouazani (Faeza Tayeb), Одри Тоту / Audrey Tautou (Nawel), Кристоф Мене / Christophe Meynet (Chris), Жан-Мишель Лами / Jean-Michel Lahmi (Théo Sarapos), Грегори Гадебуа / Grégory Gadebois (Marcel), Лионель Абелански / Lionel Abelanski (Lolo), Мишель Галабрю / Michel Galabru (Michel Galabru)
Описание: В атмосфере ночного Парижа переплетены любовь, интриги и опасность. Перед директором театра Луиджи, бабником и разгильдяем, стоит задача не из легких — найти деньги на громкую премьеру и живую обезьяну. И для этого ему придется использовать всю свою изобретательность, хитрость и, разумеется… недюжинное мужское обаяние, потому что в ночном Париже все решают красотки и роковые женщины.
Доп. информация: Hot Bird (13.0°E) TV5MONDE Europe DVB-S
Награды: номинация на лучший режиссерский дебют Festival du Film Francophone d'Angouleme 2016; номинация на лучшего актера (Edouard Baer) Rendez-vous avec le nouveau Cinema francais a Rome 2017.
Качество видео: DVB
Формат видео: MKV
Видео: MPEG Video 2, 720x576@1024x576 (16:9), 25 fps, ~3039 kbps avg, 0.293 bit/pixel
Аудио: MPEG Audio 2, 2 ch, 48 kHz, 192 kbps - французский
Формат субтитров: softsub (SRT)

Пример субтитров

1
00:00:43,069 --> 00:00:44,800
Быстрее, они меня ждут!
2
00:00:44,800 --> 00:00:46,925
Ты идешь?
3
00:00:47,279 --> 00:00:49,674
Ты слышишь?
Меня ждут!
4
00:00:49,674 --> 00:00:52,149
-Мне пора на сцену!
-Нет! Отпусти!
5
00:00:52,149 --> 00:00:54,154
-Ты слышишь меня?
-Я не закончила.
6
00:00:54,154 --> 00:00:55,519
Отпусти!
7
00:00:55,519 --> 00:00:58,033
Быстрее, Мирей!
Отпусти!
8
00:00:58,033 --> 00:01:00,033
Отпусти!
9
00:01:00,192 --> 00:01:02,276
-Ну вот!
-Гадина!
10
00:01:02,276 --> 00:01:03,789
Дура!
11
00:01:03,789 --> 00:01:05,034
Черт побери!
12
00:01:05,034 --> 00:01:07,274
Продолжим
через 10 минут.
13
00:01:07,274 --> 00:01:09,274
Перерыв!
14
00:01:14,954 --> 00:01:16,827
Разве я сказал:
"Дым"?
15
00:01:16,827 --> 00:01:18,750
Он подал знак.
16
00:01:18,750 --> 00:01:20,877
Разве я сказал:
"Дым"?
17
00:01:20,877 --> 00:01:25,502
Блин, я бы всех их
укокошил!
18
00:01:32,872 --> 00:01:35,790
-Где Луиджи?
-Не знаю.
19
00:01:35,790 --> 00:01:38,104
Мне не хочется
поднимать завтра занавес.
20
00:01:38,104 --> 00:01:40,684
Железный занавес
тяжелый.

MediaInfo

General
Unique ID : 40823628316323800972110627899557601017 (0x1EB658463555D8F7748CC93FD610DEF9)
Complete name : [apreder]Ouvert_la_nuit(2016)DVB.mkv
Format : Matroska
Format version : Version 2
File size : 2.14 GiB
Duration : 1 h 32 min
Overall bit rate mode : Variable
Overall bit rate : 3 297 kb/s
Movie name : Ouvert la nuit
Released date : 2016-00-00
Encoded date : UTC 2019-04-23 14:44:02
Writing application : mkvmerge v33.1.0 ('Primrose') 64-bit
Writing library : libebml v1.3.7 + libmatroska v1.5.0
Cover : Yes
Attachments : cover.jpg / small_cover.jpg
ACTOR : Edouard Baer, Sabrina Ouazani, Audrey Tautou
DIRECTOR : Edouard Baer
GENRE : Comedy, Drama
IMDB : tt5252396
KEYWORDS : rutracker.org
LAW_RATING : 16+
Video
ID : 1
Format : MPEG Video
Format version : Version 2
Format profile : Main@Main
Format settings : CustomMatrix / BVOP
Format settings, BVOP : Yes
Format settings, Matrix : Custom
Format settings, GOP : Variable
Format settings, picture structure : Frame
Codec ID : V_MPEG2
Codec ID/Info : MPEG 1 or 2 Video
Duration : 1 h 32 min
Bit rate mode : Variable
Bit rate : 3 039 kb/s
Maximum bit rate : 15.0 Mb/s
Width : 720 pixels
Height : 576 pixels
Display aspect ratio : 16:9
Active Format Description : Letterbox 16:9 image
Frame rate mode : Constant
Frame rate : 25.000 FPS
Standard : PAL
Color space : YUV
Chroma subsampling : 4:2:0
Bit depth : 8 bits
Scan type : Interlaced
Scan order : Top Field First
Compression mode : Lossy
Bits/(Pixel*Frame) : 0.293
Stream size : 1.97 GiB (92%)
Default : Yes
Forced : No
Audio
ID : 2
Format : MPEG Audio
Format version : Version 1
Format profile : Layer 2
Codec ID : A_MPEG/L2
Codec ID/Hint : MP2
Duration : 1 h 32 min
Bit rate mode : Constant
Bit rate : 192 kb/s
Channel(s) : 2 channels
Sampling rate : 48.0 kHz
Compression mode : Lossy
Stream size : 128 MiB (6%)
Language : French
Default : Yes
Forced : No
Text #1
ID : 3
Format : UTF-8
Codec ID : S_TEXT/UTF8
Codec ID/Info : UTF-8 Plain Text
Language : Russian
Default : No
Forced : No
Text #2
ID : 4
Format : UTF-8
Codec ID : S_TEXT/UTF8
Codec ID/Info : UTF-8 Plain Text
Language : English
Default : No
Forced : No
Text #3
ID : 5
Format : UTF-8
Codec ID : S_TEXT/UTF8
Codec ID/Info : UTF-8 Plain Text
Language : French
Default : No
Forced : No
Text #4
ID : 6
Format : UTF-8
Codec ID : S_TEXT/UTF8
Codec ID/Info : UTF-8 Plain Text
Title : Teletexte
Language : French
Default : No
Forced : No
Text #5
ID : 7
Format : UTF-8
Codec ID : S_TEXT/UTF8
Codec ID/Info : UTF-8 Plain Text
Language : Dutch
Default : No
Forced : No
Text #6
ID : 8
Format : UTF-8
Codec ID : S_TEXT/UTF8
Codec ID/Info : UTF-8 Plain Text
Language : rom
Default : No
Forced : No
Text #7
ID : 9
Format : UTF-8
Codec ID : S_TEXT/UTF8
Codec ID/Info : UTF-8 Plain Text
Language : Spanish
Default : No
Forced : No

Скриншот c названием фильма

Скриншоты


Резервные скриншоты


- [4'558]
[cybertorrent.ru].t2266.torrent 
Торрент: Зарегистрирован [ 2019-04-23 15:33 ] · 00FA8D8E9A33C6B031A36A706E1BB79BC2B0BCD1

Скачать .torrent

Скачать

22 KB

Статус: проверено
Скачан: 0 раз
Размер: 2,14 GB
terms.php
[Профиль] [ЛС]
Показать сообщения:    
Ответить на тему

Текущее время: 19-Сен 04:03

Часовой пояс: UTC ± 0



Вы не можете начинать темы
Вы не можете отвечать на сообщения
Вы не можете редактировать свои сообщения
Вы не можете удалять свои сообщения
Вы не можете голосовать в опросах
Вы не можете прикреплять файлы к сообщениям
Вы можете скачивать файлы

Партнеры

Выражаем благодарность всем людям, внесшим вклад в наш сайт в далёком прошлом. Мы помним Вас, гордимся Вами и ждём Вас обратно!

Интересное в сети