G.I. Joe: Бросок кобры 2 / G.I. Joe: Retaliation (Джон М. Чу / Jon Chu) [2013, США, фантастика, боевик, триллер, приключения, WEBRip-AVC] [Театральная версия / Theatrical Cut] [Open Matte] Dub + Sub Rus Eng + Original Eng

Ответить на тему
Статистика раздачи
Размер:  2,08 GB   |    Зарегистрирован:  2 месяца 7 дней   |    Скачан:  0 раз

Полного источника не было: Никогда

   
 
Автор Сообщение

cyber ®

Пол: Не указан

Стаж: 2 месяца 13 дней

Сообщений: 73

Создавать темы 18-Мар-2019 10:00

[Цитировать]

G.I. Joe: Бросок кобры 2G.I. Joe: RetaliationТеатральная версияOpen Matte- Страна: США
Жанр: фантастика, боевик, триллер, приключения
Год выпуска: 2013
Продолжительность: 01:45:41
Перевод: Профессиональный (дублированный)
Субтитры: русские, английские
Оригинальная аудиодорожка: английский
Режиссер: Джон М. Чу / Jon Chu
В ролях: Ченнинг Татум, Дуэйн Джонсон, Эдрианн Палики, Брюс Уиллис, Рэй Парк, Ли Бён Хон, Ди Джей Котрона, Джонатан Прайс, Элоди Юнг, Люк Брейси, Рэй Стивенсон, Уолтон Гоггинс, Арнольд Вослу, Джозеф Маццелло, Ник Эриксон, RZA, Наим Альхерими, Рави Найду, Мэтт Джералд, Дуглас М. Гриффин, Джо Крест, Джеймс Карвилл, Райан Хансен, ДеРэй Дэвис, Нэйтан Такасигэ
Описание: Во второй части отряд «G.I. Joe» вновь объявит вызов группировке «Кобра» и вступит в противостояние с правительством…
Доп. информация: исходник с онлайн кинотеатра ivi
за рип спасибо Меран
Сэмпл

Качество видео: WEBRip-AVC
Формат видео: MKV
Видео: AVC, 1024x576, 25 fps, ~2180 kbps
Аудио: (Rus) AC3, 48.0 KHz, 2 ch, 192 kbps
Аудио 2: (Eng) AC3, 48.0 KHz, 6 ch, 448 kbps
Формат субтитров: softsub (SRT)
Доп. информация о субтитрах: русские (full), английские (full)

MediaInfo

General
UniqueID : 224586081884025195385979304871008576063 (0xA8F5B4BDAE60648F901B0206DD8AA23F)
Complete name : D:\Бросок кобры 2 (2013) Open Matte.mkv
Format : Matroska
File size : 2.08 GiB
Duration : 1h 45mn
Overall bit rate : 2 821 Kbps
Encoded date : UTC 2019-01-26 17:32:04
Writing application : mkvmerge v6.4.1 ('Omega Point') built on Sep 16 2013 22:05:10
Writing library : libebml v1.3.0 + libmatroska v1.4.1
Video
ID : 1
Format : AVC
Format/Info : Advanced Video Codec
Format profile : High@L3.1
Format settings, CABAC : Yes
Format settings, ReFrames : 8 frames
Codec ID : V_MPEG4/ISO/AVC
Duration : 1h 45mn
Bit rate : 2 180 Kbps
Width : 1 024 pixels
Height : 576 pixels
Display aspect ratio : 16:9
Frame rate : 25.000 fps
Color space : YUV
Chroma subsampling : 4:2:0
Bit depth : 8 bits
Scan type : Progressive
Bits/(Pixel*Frame) : 0.148
Stream size : 1.57 GiB (75%)
Writing library : x264 core 146 r2538 121396c
Encoding settings : cabac=1 / ref=8 / deblock=1:0:0 / analyse=0x3:0x113 / me=umh / subme=10 / psy=1 / psy_rd=1.00:0.00 / mixed_ref=1 / me_range=32 / chroma_me=1 / trellis=2 / 8x8dct=1 / cqm=0 / deadzone=21,11 / fast_pskip=0 / chroma_qp_offset=-2 / threads=6 / lookahead_threads=1 / sliced_threads=0 / nr=0 / decimate=1 / interlaced=0 / bluray_compat=0 / constrained_intra=0 / bframes=9 / b_pyramid=2 / b_adapt=2 / b_bias=0 / direct=3 / weightb=1 / open_gop=0 / weightp=2 / keyint=250 / keyint_min=25 / scenecut=40 / intra_refresh=0 / rc_lookahead=50 / rc=2pass / mbtree=1 / bitrate=2180 / ratetol=1.0 / qcomp=0.60 / qpmin=0 / qpmax=69 / qpstep=4 / cplxblur=20.0 / qblur=0.5 / vbv_maxrate=14000 / vbv_bufsize=14000 / nal_hrd=none / filler=0 / ip_ratio=1.40 / aq=1:1.00
Audio #1
ID : 2
Format : AC-3
Format/Info : Audio Coding 3
Mode extension : CM (complete main)
Codec ID : A_AC3
Duration : 1h 45mn
Bit rate mode : Constant
Bit rate : 192 Kbps
Channel(s) : 2 channels
Channel positions : Front: L R
Sampling rate : 48.0 KHz
Bit depth : 16 bits
Compression mode : Lossy
Stream size : 145 MiB (7%)
Language : Russian
Audio #2
ID : 3
Format : AC-3
Format/Info : Audio Coding 3
Mode extension : CM (complete main)
Codec ID : A_AC3
Duration : 1h 45mn
Bit rate mode : Constant
Bit rate : 448 Kbps
Channel(s) : 6 channels
Channel positions : Front: L C R, Side: L R, LFE
Sampling rate : 48.0 KHz
Bit depth : 16 bits
Compression mode : Lossy
Stream size : 339 MiB (16%)
Language : English
Text #1
ID : 4
Format : UTF-8
Codec ID : S_TEXT/UTF8
Codec ID/Info : UTF-8 Plain Text
Language : Russian
Text #2
ID : 5
Format : UTF-8
Codec ID : S_TEXT/UTF8
Codec ID/Info : UTF-8 Plain Text
Language : English

Скриншот c названием фильма

Скриншоты

Сравнения

сравнения с BDRip


проосьба не уходить с раздачи
[cybertorrent.ru].t227.torrent 
Торрент: Зарегистрирован [ 2019-03-18 10:04 ] · 419DA61375560E6DA9C43DDC6A6AFF5EAF358E52

Скачать .torrent

Скачать

11 KB

Статус: проверено
Скачан: 0 раз
Размер: 2,08 GB
terms.php
[Профиль] [ЛС]
Показать сообщения:    
Ответить на тему

Текущее время: 25-Май 14:52

Часовой пояс: UTC ± 0



Вы не можете начинать темы
Вы не можете отвечать на сообщения
Вы не можете редактировать свои сообщения
Вы не можете удалять свои сообщения
Вы не можете голосовать в опросах
Вы не можете прикреплять файлы к сообщениям
Вы можете скачивать файлы