Переход / Происшествие / Проход / Le passage (Рене Манзор / René Manzor) [1986, Франция, драма, триллер, мистика, DVDRip] VO (Михаил Заугаров) + VO + Original Fra

Ответить на тему
Статистика раздачи
Размер:  1,4 GB   |    Зарегистрирован:  4 месяца   |    Скачан:  0 раз

Полного источника не было: Никогда

   
 
Автор Сообщение

serzh ®

Пол: Не указан

Стаж: 5 месяцев 12 дней

Сообщений: 361

Создавать темы 24-Апр-2019 16:06

[Цитировать]

Переход / Происшествие / Проход / Le passage
Страна: Франция
Жанр: драма, триллер, мистика
Год выпуска: 1986
Продолжительность: 01:20:01
Перевод: Одноголосый закадровый Михаил Заугаров
Перевод 2: Одноголосый закадровый
Субтитры: нет
Оригинальная аудиодорожка: французский
Режиссер: Рене Манзор / René Manzor
В ролях: Ален Делон Кристин Буассон, Жан-Люк Моро, Ален Лаланн, Альберто Ломео, Сальваторе
Никозия, Жан-Пьерр Левассер, Мари Маркос, Сильви Монье, Кристиан Брендель
Описание: Известный художник — создатель мультфильмов, разочарован вечным насилием,
порожденным человечеством. Борьба со смертью. Он подвергает риску жизни своих самых дорогих
людей. Но задуманной программе по разрушению Земли — не сбыться.
Доп. информация: Дорожка с М. Заугаровым синхронизирована и наложена ale_x2008 при помощи Sony Vegas и VirtualDubMod.
За оцифрованную с VHS дорожку благодарим - alenavova
Дорожка с VO синхронизирована и наложена ale_x2008 при помощи Sony Vegas и VirtualDubMod.
За предоставленную дорожку благодарим - RoxMarty
Релиз
Сэмпл: https://yadi.sk/i/s2PTSgvxh_U-lQ
Качество видео: DVDRip
Формат видео: AVI
Видео: XviD build 73, 704x384 (1.83:1), 25 fps, 1901 kbps avg, 0.28 bit/pixel
Аудио: AC3 Dolby Digital, 48000Hz, 2/0 (L,R) ch (mono), 192 kbps avg (VO М. Заугаров)
Аудио 2: AC3 Dolby Digital, 48000Hz, 2/0 (L,R) ch (mono), 192 kbps avg (VO)
Аудио 3: AC3 Dolby Digital, 48000Hz, 2/0 (L,R) ch, 192 kbps avg (Fra)

MediaInfo

Переход - Le passage (by ale_x2008).avi
Format : AVI
Format/Info : Audio Video Interleave
File size : 1.40 GiB
Duration : 1 h 20 min
Overall bit rate : 2 498 kb/s
Movie name : Переход - Le passage (by ale_x2008)
Director : by ale_x2008
Writing application : VirtualDubMod 1.5.10.2 (build 2540/release)
Copyright : Edich2
Comment : Rutracker.org
Video
ID : 0
Format : MPEG-4 Visual
Format profile : Advanced Simple@L5
Format settings : BVOP1 / Custom Matrix
Format settings, BVOP : 1
Format settings, QPel : No
Format settings, GMC : No warppoints
Format settings, Matrix : Custom
Codec ID : XVID
Codec ID/Hint : XviD
Duration : 1 h 20 min
Bit rate : 1 903 kb/s
Width : 704 pixels
Height : 384 pixels
Display aspect ratio : 1.85:1
Frame rate : 25.000 FPS
Color space : YUV
Chroma subsampling : 4:2:0
Bit depth : 8 bits
Scan type : Progressive
Compression mode : Lossy
Bits/(Pixel*Frame) : 0.282
Stream size : 1.06 GiB (76%)
Writing library : XviD 73
Audio #1
ID : 1
Format : AC-3
Format/Info : Audio Coding 3
Codec ID : 2000
Duration : 1 h 20 min
Bit rate mode : Constant
Bit rate : 192 kb/s
Channel(s) : 2 channels
Channel positions : Front: L R
Sampling rate : 48.0 kHz
Frame rate : 31.250 FPS (1536 SPF)
Bit depth : 16 bits
Compression mode : Lossy
Stream size : 110 MiB (8%)
Alignment : Split accross interleaves
Interleave, duration : 40 ms (1.00 video frame)
Interleave, preload duratio : 500 ms
Service kind : Complete Main
Audio #2
ID : 2
Format : AC-3
Format/Info : Audio Coding 3
Codec ID : 2000
Duration : 1 h 20 min
Bit rate mode : Constant
Bit rate : 192 kb/s
Channel(s) : 2 channels
Channel positions : Front: L R
Sampling rate : 48.0 kHz
Frame rate : 31.250 FPS (1536 SPF)
Bit depth : 16 bits
Compression mode : Lossy
Stream size : 110 MiB (8%)
Alignment : Split accross interleaves
Interleave, duration : 40 ms (1.00 video frame)
Interleave, preload duratio : 500 ms
Service kind : Complete Main
Audio #3
ID : 3
Format : AC-3
Format/Info : Audio Coding 3
Codec ID : 2000
Duration : 1 h 20 min
Bit rate mode : Constant
Bit rate : 192 kb/s
Channel(s) : 2 channels
Channel positions : Front: L R
Sampling rate : 48.0 kHz
Frame rate : 31.250 FPS (1536 SPF)
Bit depth : 16 bits
Compression mode : Lossy
Stream size : 110 MiB (8%)
Alignment : Split accross interleaves
Interleave, duration : 40 ms (1.00 video frame)
Interleave, preload duratio : 500 ms
Service kind : Complete Main

Скриншоты


Если ваш рейтинг упадет ниже 0,3, вы не сможете скачивать торренты! Подробнее о рейтинге.

[cybertorrent.ru].t2273.torrent 
Торрент: Зарегистрирован [ 2019-04-24 16:06 ] · C5F94B0FF8AA6F4E85CCEC2ABD52708440183C40

Скачать .torrent

Скачать

14 KB

Статус: проверено
Скачан: 0 раз
Размер: 1,4 GB
terms.php
[Профиль] [ЛС]
Показать сообщения:    
Ответить на тему

Текущее время: 24-Авг 16:23

Часовой пояс: UTC ± 0



Вы не можете начинать темы
Вы не можете отвечать на сообщения
Вы не можете редактировать свои сообщения
Вы не можете удалять свои сообщения
Вы не можете голосовать в опросах
Вы не можете прикреплять файлы к сообщениям
Вы можете скачивать файлы