Остров собак / Isle of Dogs (Уэс Андерсон / Wes Anderson) [2018, США, Германия, мультфильм, фантастика, фэнтези, драма, комедия, приключения BDRip-AVC] Dub + Dub (Ukr) + Sub (Rus, Eng, Ukr) + Original Eng

Ответить на тему
Статистика раздачи
Размер:  2,31 GB   |    Зарегистрирован:  1 месяц 4 дня   |    Скачан:  0 раз

Полного источника не было: Никогда

   
 
Автор Сообщение

karlll ®

Пол: Не указан

Стаж: 1 месяц 10 дней

Сообщений: 62

Создавать темы 18-Мар-2019 10:00

[Цитировать]

Остров собак / Isle of Dogs
Страна: США, Германия
Жанр: мультфильм, фантастика, фэнтези, драма, комедия, приключения
Продолжительность: 01:41:09
Год выпуска: 2018
Перевод 1: Профессиональный (дублированный) Русский
Перевод 2: Профессиональный (дублированный) Украинский
Оригинальная аудиодорожка: Английский
Субтитры: Русские (Форсированные, Полные), Украинские (Форсированные, Полные), Английские (Full, SDH)--Режиссёр: Уэс Андерсон / Wes Anderson--Роли озвучивали: Брайан Крэнстон, Кою Ранкин, Эдвард Нортон, Боб Бэлабан, Билл Мюррей, Джефф Голдблюм, Кунъити Номура, Акира Такаяма, Грета Гервиг, Фрэнсис МакДорманд, Акира Ито, Скарлетт Йоханссон, Харви Кейтель, Ф. Мюррей Абрахам, Йоко Оно, Тильда Суинтон, Кен Ватанабе, Мари Нацуки, Фишер Стивенс, Лив Шрайбер...--Описание: История 12-летнего мальчика Атари Кобаяши, опекаемого коррумпированным мэром Кобаяши. Когда по Указу последнего все домашние собаки города Мегасаки изгоняются на громадную свалку, Атари в одиночку отправляется на миниатюрном летательном аппарате на мусорный остров, чтобы найти своего верного пса по прозвищу Спотс. Там на острове вместе со стаей новых друзей-дворняг он начнет эпичное путешествие, которое решит будущую судьбу всей Префектуры.--Доп. информация: | IMDB | КиноПоиск | Сэмпл | --Качество: BDRip-AVC
Формат: MKV
Видео: AVC, 1144x478 (2,40:1), 1927 kbps, 23.976 fps, 0.147 bit/pixel
Аудио 1: AC3 Dolby Digital, 3/2 (L,C,R,l,r) + LFE ch, 48.0 KHz, 448 Kbps | Дубляж. Русский |
Аудио 2: AC3 Dolby Digital, 3/2 (L,C,R,l,r) + LFE ch, 48.0 KHz, 448 Kbps | Дубляж. Украинский |
Аудио 3: AC3 Dolby Digital, 3/2 (L,C,R,l,r) + LFE ch, 48.0 KHz, 448 Kbps | Оригинал. Английский |
Формат субтитров: softsub (SRT)

Скриншоты

Подробные технические данные

x264

raw [info]: 1144x478p 1:1 @ 24000/1001 fps (cfr)
x264 [info]: using SAR=1/1
x264 [info]: using cpu capabilities: MMX2 SSE2Fast SSSE3 SSE4.2 AVX
x264 [info]: profile High, level 4.1, 4:2:0, 8-bit
x264 [info]: frame I:1047 Avg QP:14.24 size:111055
x264 [info]: frame P:31700 Avg QP:16.31 size: 24104
x264 [info]: frame B:112783 Avg QP:17.62 size: 5160
x264 [info]: consecutive B-frames: 2.5% 2.8% 4.8% 35.3% 14.2% 14.6% 6.5% 7.1% 2.3% 1.7% 1.8% 3.3% 1.1% 0.8% 1.0%
x264 [info]: mb I I16..4: 8.5% 61.6% 29.9%
x264 [info]: mb P I16..4: 1.5% 4.4% 1.3% P16..4: 33.1% 15.5% 17.5% 1.5% 0.7% skip:24.4%
x264 [info]: mb B I16..4: 0.3% 0.3% 0.1% B16..8: 24.8% 7.0% 2.6% direct: 3.1% skip:61.9% L0:45.5% L1:45.1% BI: 9.4%
x264 [info]: 8x8 transform intra:56.1% inter:47.0%
x264 [info]: coded y,uvDC,uvAC intra: 73.1% 83.6% 75.5% inter: 12.7% 12.5% 5.7%
x264 [info]: i16 v,h,dc,p: 80% 10% 6% 4%
x264 [info]: i8 v,h,dc,ddl,ddr,vr,hd,vl,hu: 12% 14% 13% 8% 11% 10% 10% 10% 12%
x264 [info]: i4 v,h,dc,ddl,ddr,vr,hd,vl,hu: 12% 13% 6% 9% 13% 11% 12% 10% 13%
x264 [info]: i8c dc,h,v,p: 52% 22% 15% 11%
x264 [info]: Weighted P-Frames: Y:3.1% UV:1.7%
x264 [info]: ref P L0: 49.5% 8.9% 15.6% 5.6% 5.4% 3.8% 3.5% 1.7% 1.7% 1.5% 1.5% 1.4% 0.1% 0.0%
x264 [info]: ref B L0: 60.5% 13.4% 7.9% 4.2% 3.6% 2.9% 3.3% 1.5% 1.4% 0.9% 0.4%
x264 [info]: ref B L1: 91.4% 8.6%
x264 [info]: kb/s:1927.40
General
Unique ID : 221078879127012294151046175537188204806 (0xA6523E4B6A02CB2F8A9D9025D7267106)
Complete name : Isle of Dogs (2018).mkv
Format : Matroska
Format version : Version 4
File size : 2.31 GiB
Duration : 1 h 41 min
Overall bit rate : 3 274 kb/s
Movie name : Остров собак / Isle of Dogs (2018)
Encoded date : UTC 2019-01-26 21:39:51
Writing application : mkvmerge v8.1.0 ('Psychedelic Postcard') 64bit
Writing library : libebml v1.3.1 + libmatroska v1.4.2
Cover : Yes
Attachments : cover.jpg
Video
ID : 1
Format : AVC
Format/Info : Advanced Video Codec
Format profile : High@L4.1
Format settings : CABAC / 12 Ref Frames
Format settings, CABAC : Yes
Format settings, ReFrames : 12 frames
Codec ID : V_MPEG4/ISO/AVC
Duration : 1 h 41 min
Bit rate : 1 927 kb/s
Width : 1 144 pixels
Height : 478 pixels
Display aspect ratio : 2.40:1
Frame rate mode : Constant
Frame rate : 23.976 (24000/1001) FPS
Color space : YUV
Chroma subsampling : 4:2:0
Bit depth : 8 bits
Scan type : Progressive
Bits/(Pixel*Frame) : 0.147
Stream size : 1.36 GiB (59%)
Title : Isle of Dogs (2018) By optik.1557
Writing library : x264 core 157 r2935 545de2f
Encoding settings : cabac=1 / ref=12 / deblock=1:-3:-2 / analyse=0x3:0x133 / me=umh / subme=10 / psy=1 / psy_rd=1.05:0.01 / mixed_ref=1 / me_range=32 / chroma_me=1 / trellis=2 / 8x8dct=1 / cqm=0 / deadzone=21,11 / fast_pskip=0 / chroma_qp_offset=-3 / threads=6 / lookahead_threads=1 / sliced_threads=0 / nr=0 / decimate=1 / interlaced=0 / bluray_compat=0 / constrained_intra=0 / bframes=14 / b_pyramid=2 / b_adapt=2 / b_bias=0 / direct=1 / weightb=1 / open_gop=0 / weightp=2 / keyint=250 / keyint_min=23 / scenecut=40 / intra_refresh=0 / rc_lookahead=60 / rc=crf / mbtree=0 / crf=17.3 / qcomp=0.70 / qpmin=0 / qpmax=69 / qpstep=4 / vbv_maxrate=50000 / vbv_bufsize=62500 / crf_max=0.0 / nal_hrd=none / filler=0 / ip_ratio=1.40 / pb_ratio=1.30 / aq=3:0.85
Language : English
Default : Yes
Forced : No
Audio #1
ID : 2
Format : AC-3
Format/Info : Audio Coding 3
Commercial name : Dolby Digital
Codec ID : A_AC3
Duration : 1 h 41 min
Bit rate mode : Constant
Bit rate : 448 kb/s
Channel(s) : 6 channels
Channel layout : L R C LFE Ls Rs
Sampling rate : 48.0 kHz
Frame rate : 31.250 FPS (1536 SPF)
Bit depth : 16 bits
Compression mode : Lossy
Stream size : 324 MiB (14%)
Title : Дубляж (Blu-Ray CEE)
Language : Russian
Service kind : Complete Main
Default : Yes
Forced : No
Audio #2
ID : 3
Format : AC-3
Format/Info : Audio Coding 3
Commercial name : Dolby Digital
Codec ID : A_AC3
Duration : 1 h 41 min
Bit rate mode : Constant
Bit rate : 448 kb/s
Channel(s) : 6 channels
Channel layout : L R C LFE Ls Rs
Sampling rate : 48.0 kHz
Frame rate : 31.250 FPS (1536 SPF)
Bit depth : 16 bits
Compression mode : Lossy
Stream size : 324 MiB (14%)
Title : Дубляж (Blu-Ray CEE)
Language : Ukrainian
Service kind : Complete Main
Default : No
Forced : No
Audio #3
ID : 4
Format : AC-3
Format/Info : Audio Coding 3
Commercial name : Dolby Digital
Codec ID : A_AC3
Duration : 1 h 41 min
Bit rate mode : Constant
Bit rate : 448 kb/s
Channel(s) : 6 channels
Channel layout : L R C LFE Ls Rs
Sampling rate : 48.0 kHz
Frame rate : 31.250 FPS (1536 SPF)
Bit depth : 16 bits
Compression mode : Lossy
Stream size : 324 MiB (14%)
Title : Original
Language : English
Service kind : Complete Main
Default : No
Forced : No
Text #1
ID : 5
Format : UTF-8
Codec ID : S_TEXT/UTF8
Codec ID/Info : UTF-8 Plain Text
Duration : 1 h 34 min
Bit rate : 10 b/s
Count of elements : 133
Stream size : 7.30 KiB (0%)
Title : Форсированные
Language : Russian
Default : Yes
Forced : No
Text #2
ID : 6
Format : UTF-8
Codec ID : S_TEXT/UTF8
Codec ID/Info : UTF-8 Plain Text
Duration : 1 h 35 min
Bit rate : 96 b/s
Count of elements : 1276
Stream size : 67.6 KiB (0%)
Title : Полные
Language : Russian
Default : No
Forced : No
Text #3
ID : 7
Format : UTF-8
Codec ID : S_TEXT/UTF8
Codec ID/Info : UTF-8 Plain Text
Duration : 18 s 642 ms
Bit rate : 121 b/s
Count of elements : 5
Stream size : 284 Bytes (0%)
Title : Форсированные
Language : Ukrainian
Default : No
Forced : No
Text #4
ID : 8
Format : UTF-8
Codec ID : S_TEXT/UTF8
Codec ID/Info : UTF-8 Plain Text
Duration : 1 h 34 min
Bit rate : 95 b/s
Count of elements : 1081
Stream size : 66.1 KiB (0%)
Title : Полные
Language : Ukrainian
Default : No
Forced : No
Text #5
ID : 9
Format : UTF-8
Codec ID : S_TEXT/UTF8
Codec ID/Info : UTF-8 Plain Text
Duration : 1 h 33 min
Bit rate : 56 b/s
Count of elements : 1195
Stream size : 38.8 KiB (0%)
Title : Full
Language : English
Default : No
Forced : No
Text #6
ID : 10
Format : UTF-8
Codec ID : S_TEXT/UTF8
Codec ID/Info : UTF-8 Plain Text
Duration : 1 h 35 min
Bit rate : 63 b/s
Count of elements : 1437
Stream size : 44.6 KiB (0%)
Title : SDH
Language : English
Default : No
Forced : No
Menu
00:00:00.000 : en:00:00:00.000
00:03:36.049 : en:00:03:36.049
00:07:53.181 : en:00:07:53.181
00:13:41.195 : en:00:13:41.195
00:16:39.373 : en:00:16:39.373
00:20:45.035 : en:00:20:45.035
00:26:04.312 : en:00:26:04.312
00:29:27.265 : en:00:29:27.265
00:35:58.573 : en:00:35:58.573
00:40:36.475 : en:00:40:36.475
00:44:46.433 : en:00:44:46.433
00:48:15.100 : en:00:48:15.100
00:52:07.499 : en:00:52:07.499
00:56:06.780 : en:00:56:06.780
00:59:07.085 : en:00:59:07.085
01:03:17.710 : en:01:03:17.710
01:08:45.079 : en:01:08:45.079
01:14:03.230 : en:01:14:03.230
01:16:34.965 : en:01:16:34.965
01:20:46.925 : en:01:20:46.925
01:23:36.219 : en:01:23:36.219
01:30:09.737 : en:01:30:09.737
01:33:02.493 : en:01:33:02.493
01:35:41.235 : en:01:35:41.235

Если ваш рейтинг упадет ниже 0,3, вы не сможете скачивать торренты! Подробнее о рейтинге.

[cybertorrent.ru].t230.torrent 
Торрент: Зарегистрирован [ 2019-03-18 10:04 ] · 0C93A49B54F4AF8AEED2A6A21B10A1B9FEE1F52C

Скачать .torrent

Скачать

12 KB

Статус: проверено
Скачан: 0 раз
Размер: 2,31 GB
terms.php
[Профиль] [ЛС]
Показать сообщения:    
Ответить на тему

Текущее время: 23-Апр 06:49

Часовой пояс: UTC ± 0



Вы не можете начинать темы
Вы не можете отвечать на сообщения
Вы не можете редактировать свои сообщения
Вы не можете удалять свои сообщения
Вы не можете голосовать в опросах
Вы не можете прикреплять файлы к сообщениям
Вы можете скачивать файлы