Прайм-тайм / Prime Time (Агнета Фагерстрем-Олссон / Agneta Fagerström-Olsson) [2012, Швеция, триллер, драма, криминал, BDRip-AVC] MVO + Original Swe + Sub (Rus, Swe, Eng, Fin, Nor)

Ответить на тему
Статистика раздачи
Размер:  2,25 GB   |    Зарегистрирован:  5 месяцев   |    Скачан:  0 раз

Полного источника не было: Никогда

   
 
Автор Сообщение

cyber ®

Пол: Не указан

Стаж: 5 месяцев 6 дней

Сообщений: 142

Создавать темы 18-Мар-2019 10:00

[Цитировать]

Прайм-тайм / Prime Time- Страна: Швеция
Жанр: триллер, драма, криминал
Год выпуска: 2012
Продолжительность: 01:33:07
Перевод: Профессиональный (многоголосый закадровый)
Субтитры: русские, шведские, английские, финские, норвежские
Оригинальная аудиодорожка: шведский
Режиссер: Агнета Фагерстрем-Олссон / Agneta Fagerström-Olsson
В ролях: Малин Крепин, Бьёрн Чьелльман, Лейф Андре, Кайса Эрнст, Эрик Йоханссон, Феликс Энгстрем, Кандиду Ричард Ульфзэтер, Моа Гаммель, Жозефин Борнебуш, Мария Кулле
Описание: Член Нобелевского комитета, стриптизёрша из ночного клуба, левый радикал-террорист, а теперь — знаменитая телеведущая… Журналистка Анника Бенгтссон опять опережает туповатых шведских полицейских в расследовании громких убийств.
Сэмпл: http://sendfile.su/1471002

Качество видео: BDRip-AVC (Прайм-тайм 2012 BDRemux)
Формат видео: MKV
Видео: x264,1152x648 (16:9)24 fps, ~2811 kbps, 0,157 bit/pixel
Аудио 1: 48 kHz, AC3 Dolby Digital, 2/0 (L,R), ~192 kbps avg | MVO
Аудио 2: 48 kHz, AC3 Dolby Digital, 2/0 (L,R), ~448 kbps avg | Шведский
Формат субтитров: softsub (SRT)

MediaInfo

General
Unique ID : 35353505595099119148244738877207215536 (0x1A98D666D2E2FB06FF40CC144BD9FDB0)
Format : Matroska
Format version : Version 4 / Version 2
File size : 2.25 GiB
Duration : 1h 33mn
Overall bit rate : 3 454 Kbps
Encoded date : UTC 2019-01-26 13:58:12
Writing application : mkvmerge v30.0.0 ('Interstellar') 64-bit
Writing library : libebml v1.3.6 + libmatroska v1.4.9
Attachments : poster.jpg
Video #1
ID : 1
Format : AVC
Format/Info : Advanced Video Codec
Format profile : High@L4.1
Format settings, CABAC : Yes
Format settings, ReFrames : 10 frames
Codec ID : V_MPEG4/ISO/AVC
Duration : 1h 33mn
Bit rate : 2 811 Kbps
Width : 1 152 pixels
Height : 648 pixels
Display aspect ratio : 16:9
Frame rate mode : Constant
Frame rate : 24.000 fps
Color space : YUV
Chroma subsampling : 4:2:0
Bit depth : 8 bits
Scan type : Progressive
Bits/(Pixel*Frame) : 0.157
Stream size : 1.83 GiB (81%)
Writing library : x264 core 157 r2935 545de2f
Encoding settings : cabac=1 / ref=10 / deblock=1:-3:-2 / analyse=0x3:0x133 / me=umh / subme=10 / psy=1 / psy_rd=1.00:0.00 / mixed_ref=1 / me_range=32 / chroma_me=1 / trellis=2 / 8x8dct=1 / cqm=0 / deadzone=21,11 / fast_pskip=0 / chroma_qp_offset=-2 / threads=6 / lookahead_threads=1 / sliced_threads=0 / nr=0 / decimate=1 / interlaced=0 / bluray_compat=0 / constrained_intra=0 / bframes=9 / b_pyramid=2 / b_adapt=2 / b_bias=0 / direct=1 / weightb=1 / open_gop=0 / weightp=2 / keyint=250 / keyint_min=23 / scenecut=40 / intra_refresh=0 / rc=crf / mbtree=0 / crf=19.3 / qcomp=0.65 / qpmin=0 / qpmax=69 / qpstep=4 / ip_ratio=1.40 / pb_ratio=1.30 / aq=3:0.90
Language : English
Default : Yes
Forced : No
Audio #2
ID : 2
Format : AC-3
Format/Info : Audio Coding 3
Mode extension : CM (complete main)
Format settings, Endianness : Big
Codec ID : A_AC3
Duration : 1h 33mn
Bit rate mode : Constant
Bit rate : 192 Kbps
Channel(s) : 2 channels
Channel positions : Front: L R
Sampling rate : 48.0 KHz
Frame rate : 31.250 fps (1536 spf)
Compression mode : Lossy
Stream size : 128 MiB (6%)
Title : MVO
Language : Russian
Default : Yes
Forced : No
Audio #3
ID : 3
Format : AC-3
Format/Info : Audio Coding 3
Mode extension : CM (complete main)
Format settings, Endianness : Big
Codec ID : A_AC3
Duration : 1h 33mn
Bit rate mode : Constant
Bit rate : 448 Kbps
Channel(s) : 6 channels
Channel positions : Front: L C R, Side: L R, LFE
Sampling rate : 48.0 KHz
Frame rate : 31.250 fps (1536 spf)
Compression mode : Lossy
Stream size : 298 MiB (13%)
Language : Swedish
Default : No
Forced : No
Text #4
ID : 4
Format : UTF-8
Codec ID : S_TEXT/UTF8
Codec ID/Info : UTF-8 Plain Text
Duration : 1h 29mn
Bit rate : 103 bps
Count of elements : 1090
Stream size : 67.9 KiB (0%)
Title : kon2011
Language : Russian
Default : No
Forced : No
Text #5
ID : 5
Format : UTF-8
Codec ID : S_TEXT/UTF8
Codec ID/Info : UTF-8 Plain Text
Duration : 1h 2mn
Bit rate : 0 bps
Count of elements : 14
Stream size : 414 Bytes (0%)
Title : forced
Language : Swedish
Default : No
Forced : No
Text #6
ID : 6
Format : UTF-8
Codec ID : S_TEXT/UTF8
Codec ID/Info : UTF-8 Plain Text
Duration : 1h 31mn
Bit rate : 58 bps
Count of elements : 1008
Stream size : 39.4 KiB (0%)
Title : full
Language : Swedish
Default : No
Forced : No
Text #7
ID : 7
Format : UTF-8
Codec ID : S_TEXT/UTF8
Codec ID/Info : UTF-8 Plain Text
Duration : 1h 29mn
Bit rate : 49 bps
Count of elements : 807
Stream size : 32.6 KiB (0%)
Language : English
Default : No
Forced : No
Text #8
ID : 8
Format : UTF-8
Codec ID : S_TEXT/UTF8
Codec ID/Info : UTF-8 Plain Text
Duration : 1h 30mn
Bit rate : 56 bps
Count of elements : 971
Stream size : 37.2 KiB (0%)
Language : Finnish
Default : No
Forced : No
Text #9
ID : 9
Format : UTF-8
Codec ID : S_TEXT/UTF8
Codec ID/Info : UTF-8 Plain Text
Duration : 1h 30mn
Bit rate : 57 bps
Count of elements : 971
Stream size : 37.9 KiB (0%)
Language : Norwegian
Default : No
Forced : No

лог

raw [info]: 1152x648p 1:1 @ 10000000/416667 fps (cfr)
x264 [info]: using SAR=1/1
x264 [info]: using cpu capabilities: MMX2 SSE2Fast SSSE3 SSE4.2 AVX XOP FMA3 BMI1
x264 [info]: profile High, level 4.1, 4:2:0, 8-bit
x264 [info]: frame I:1507 Avg QP:16.74 size: 97054
x264 [info]: frame P:27474 Avg QP:17.88 size: 29873
x264 [info]: frame B:105126 Avg QP:20.30 size: 9478
x264 [info]: consecutive B-frames: 1.8% 2.0% 5.8% 18.1% 15.7% 51.0% 3.9% 0.6% 0.9% 0.2%
x264 [info]: mb I I16..4: 6.2% 79.3% 14.5%
x264 [info]: mb P I16..4: 3.0% 12.4% 1.7% P16..4: 41.9% 21.1% 14.2% 0.4% 0.1% skip: 5.2%
x264 [info]: mb B I16..4: 0.4% 0.9% 0.1% B16..8: 39.1% 9.7% 2.3% direct: 5.7% skip:41.8% L0:44.9% L1:44.8% BI:10.3%
x264 [info]: 8x8 transform intra:72.4% inter:68.0%
x264 [info]: coded y,uvDC,uvAC intra: 69.0% 77.7% 57.9% inter: 19.9% 21.8% 6.2%
x264 [info]: i16 v,h,dc,p: 61% 12% 6% 20%
x264 [info]: i8 v,h,dc,ddl,ddr,vr,hd,vl,hu: 16% 9% 12% 8% 11% 13% 10% 11% 10%
x264 [info]: i4 v,h,dc,ddl,ddr,vr,hd,vl,hu: 17% 8% 6% 9% 14% 14% 11% 10% 10%
x264 [info]: i8c dc,h,v,p: 46% 21% 21% 13%
x264 [info]: Weighted P-Frames: Y:4.2% UV:2.5%
x264 [info]: ref P L0: 45.7% 10.3% 18.0% 6.7% 5.8% 4.0% 3.7% 2.0% 1.9% 1.7% 0.1% 0.0%
x264 [info]: ref B L0: 71.6% 11.9% 6.2% 3.3% 2.4% 2.0% 1.6% 0.7% 0.3%
x264 [info]: ref B L1: 93.2% 6.8%
x264 [info]: kb/s:2810.93
x264 [total]: encoded 134107 frames, 5.72 fps, 2810.93 kb/s

Скриншоты


[cybertorrent.ru].t232.torrent 
Торрент: Зарегистрирован [ 2019-03-18 10:04 ] · 23A6D89745DED0A3ED70DD4D2FACE3180ED575AD

Скачать .torrent

Скачать

12 KB

Статус: проверено
Скачан: 0 раз
Размер: 2,25 GB
terms.php
[Профиль] [ЛС]
Показать сообщения:    
Ответить на тему

Текущее время: 18-Авг 23:57

Часовой пояс: UTC ± 0



Вы не можете начинать темы
Вы не можете отвечать на сообщения
Вы не можете редактировать свои сообщения
Вы не можете удалять свои сообщения
Вы не можете голосовать в опросах
Вы не можете прикреплять файлы к сообщениям
Вы можете скачивать файлы