Жил-был настройщик (Владимир Алеников) [1979, комедия, DVB]

Ответить на тему
Статистика раздачи
Размер:  1,35 GB   |    Зарегистрирован:  2 месяца 7 дней   |    Скачан:  0 раз

Полного источника не было: Никогда

   
 
Автор Сообщение

edich ®

Пол: Не указан

Стаж: 2 месяца 13 дней

Сообщений: 84

Создавать темы 18-Мар-2019 10:00

[Цитировать]

Жил-был настройщик
Студия: ТО «Экран»
Жанр: комедия
Год выпуска: 1979
Продолжительность: 01:08:26
Режиссер: Владимир Алеников
В ролях: Ролан Быков, Елена Санаева, Валерий Носик, Михаил Кокшенов, Михаил Львов, Игорь Ясулович, Нина Тер-Осипян, Инна Аленикова, Ерванд Арзуманян, Алла Богуславская, Валерия Пещурова, Инна Дубова, Юрий Дубровин (III), Вера Ивлева, Владимир Иванов, Леонид Царенко, Герасим Лисициан, Георгий Мартиросьян, Флора Нерсесова, Виктор Павловский, Илья Рутберг, Георгий Светлани, Юрий Сагьянц, Александр Сажин, Наталия Ченчик, Ника Бердичевская, Ирина Мурзаева, Александр Лебедев, Пётр Подгородецкий, Георгий Светлани
Описание: Скромный и немного чудаковатый настройщик ходит по квартирам разных людей, настраивая музыкальные инструменты. И вдруг однажды оказывается в доме у красивой и интеллигентной женщины, в которую он влюбляется с первого взгляда, понимая, что это женщину его мечты — возвышенная и недоступная.
Дополнительная информация:
Автор релиза -
Источник - DVB 576i TS - моя запись с канала "Россия К"




Рекламы нет!
Качество видео: DVB
Формат видео: MKV
Видео: MPEG-4, 720x576@1024х576 (16:9), 25.000 fps, 2582 kbps, 0.249 bit/pixel
Аудио: Русский MP2, 48000 Гц, 2ch, 192 kbps

MediaInfo

Общее
Уникальный идентификатор : 219921529765174165153514747901275907099 (0xA5735890C533ACAA9EFEACA1AA51A41B)
Полное имя : D:\Жил.был.настройщик.1979.DVB-ylnian.mkv
Формат : Matroska
Версия формата : Version 2
Размер файла : 1,35 Гбайт
Продолжительность : 1 ч. 8 м.
Общий поток : 2830 Кбит/сек
Дата кодирования : UTC 2019-01-26 18:26:15
Программа кодирования : mkvmerge v5.8.0 ('No Sleep / Pillow') built on Sep 2 2012 15:37:04
Библиотека кодирования : libebml v1.2.3 + libmatroska v1.3.0
Видео
Идентификатор : 1
Формат : AVC
Формат/Информация : Advanced Video Codec
Профиль формата : Main@L3
Настройки формата : CABAC / 3 Ref Frames
Параметр CABAC формата : Да
Параметр RefFrames формата : 3 кадра
Идентификатор кодека : V_MPEG4/ISO/AVC
Продолжительность : 1 ч. 8 м.
Битрейт : 2582 Кбит/сек
Ширина : 720 пикселей
Высота : 576 пикселей
Соотношение сторон : 16:9
Режим частоты кадров : Постоянный
Частота кадров : 25,000 кадров/сек
Стандарт вещания : Component
Цветовое пространство : YUV
Субдискретизация насыщенности : 4:2:0
Битовая глубина : 8 бит
Тип развёртки : Чересстрочная
Метод сохранения типа развёртки : Раздельные поля
Порядок развёртки : Верхнее поле первое
Бит/(Пиксели*Кадры) : 0.249
Размер потока : 1,23 Гбайт (91%)
Язык : Russian
Default : Да
Forced : Да
Цветовой диапазон : Limited
Основные цвета : BT.601 PAL
Характеристики трансфера : BT.470 System B/G
Коэффициенты матрицы : BT.470 System B/G
Аудио
Идентификатор : 2
Формат : MPEG Audio
Версия формата : Version 1
Профиль формата : Layer 2
Идентификатор кодека : A_MPEG/L2
Идентификатор кодека/Подсказка : MP2
Продолжительность : 1 ч. 8 м.
Вид битрейта : Постоянный
Битрейт : 192 Кбит/сек
Каналы : 2 канала
Частота : 48,0 КГц
Метод сжатия : С потерями
Размер потока : 94,0 Мбайт (7%)
Язык : Russian
Default : Да
Forced : Да
[cybertorrent.ru].t233.torrent 
Торрент: Зарегистрирован [ 2019-03-18 10:04 ] · CC1DFAC7B688A10EF3DDBF70536BD6157A896BF0

Скачать .torrent

Скачать

14 KB

Статус: проверено
Скачан: 0 раз
Размер: 1,35 GB
terms.php
[Профиль] [ЛС]
Показать сообщения:    
Ответить на тему

Текущее время: 25-Май 15:25

Часовой пояс: UTC ± 0



Вы не можете начинать темы
Вы не можете отвечать на сообщения
Вы не можете редактировать свои сообщения
Вы не можете удалять свои сообщения
Вы не можете голосовать в опросах
Вы не можете прикреплять файлы к сообщениям
Вы можете скачивать файлы