Павел Корчагин (Александр Алов, Владимир Наумов) [1956, драма, история, экранизация, DVB] Original Rus + Sub Rus

Ответить на тему
Статистика раздачи
Размер:  2 GB   |    Зарегистрирован:  5 месяцев   |    Скачан:  0 раз

Полного источника не было: Никогда

   
 
Автор Сообщение

edich ®

Пол: Не указан

Стаж: 5 месяцев 6 дней

Сообщений: 157

Создавать темы 18-Мар-2019 10:00

[Цитировать]

Павел Корчагин
Студия: Киевская киностудия
Жанр: драма, история, экранизация
Год выпуска: 1956
Продолжительность: 01:36:09
Режиссер: Александр Алов, Владимир Наумов
В ролях: Василий Лановой, Эльза Леждей, Тамара Страдина, Владимир Маренков, Павел Усовниченко, Дмитрий Милютенко, Александр Лебедев (I), Лев Перфилов, Виктор Степанов (III), Лидия Пикторская, Константин Степанков, Ада Роговцева, Валентина Телегина, Леонид Пархоменко, Николай Гринько, Григорий Тесля, Леонид Усач, Феликс Яворский, Евгений Моргунов
Описание: Вторая экранизация хрестоматийного произведения советской литературы Н.А. Островского «Как закалялась сталь» об отважном красноармейце и первопроходце новой жизни Павке Корчагине и его соратниках-комсомольцах, самоотверженных бойцах за правое дело.
Дополнительная информация:
Автор релиза -
Источник субтитров и видео - DVB 576i TS - моя запись с канала "Россия К"
Редактор русских субтитров - Ю.Антонова / ВГТРК




Рекламы нет!
Качество видео: DVB
Формат видео: TS
Видео: MPEG-4, 720x576@1024х576 (16:9), 25.000 fps, 2638 kbps, 0.254 bit/pixel
Аудио: Русский MP2, 48000 Гц, 2ch, 192 kbps
Формат субтитров: softsub (SRT) - внешние

MediaInfo

Общее
Идентификатор : 1 (0x1)
Полное имя : D:\Павел.Корчагин.1956.DVB-ylnian\Павел.Корчагин.1956.DVB-ylnian.ts
Формат : MPEG-TS
Размер файла : 2,00 Гбайт
Продолжительность : 1 ч. 36 м.
Режим общего битрейта : Переменный
Общий поток : 2980 Кбит/сек
Максимальный общий битрейт : 35,5 Мбит/сек
Видео
Идентификатор : 4113 (0x1011)
Идентификатор меню : 1 (0x1)
Формат : AVC
Формат/Информация : Advanced Video Codec
Профиль формата : Main@L3
Настройки формата : CABAC / 3 Ref Frames
Параметр CABAC формата : Да
Параметр RefFrames формата : 3 кадра
Параметр GOP формата : M=4, N=28
Идентификатор кодека : 27
Продолжительность : 1 ч. 36 м.
Вид битрейта : Переменный
Битрейт : 2638 Кбит/сек
Максимальный битрейт : 40,0 Мбит/сек
Ширина : 720 пикселей
Высота : 576 пикселей
Соотношение сторон : 16:9
Частота кадров : 25,000 кадров/сек
Стандарт вещания : Component
Цветовое пространство : YUV
Субдискретизация насыщенности : 4:2:0
Битовая глубина : 8 бит
Тип развёртки : Чересстрочная
Метод сохранения типа развёртки : Раздельные поля
Порядок развёртки : Верхнее поле первое
Бит/(Пиксели*Кадры) : 0.254
Размер потока : 1,77 Гбайт (89%)
Цветовой диапазон : Limited
Основные цвета : BT.601 PAL
Характеристики трансфера : BT.470 System B/G
Коэффициенты матрицы : BT.470 System B/G
Аудио
Идентификатор : 4352 (0x1100)
Идентификатор меню : 1 (0x1)
Формат : MPEG Audio
Версия формата : Version 1
Профиль формата : Layer 2
Идентификатор кодека : 4
Продолжительность : 1 ч. 36 м.
Вид битрейта : Постоянный
Битрейт : 192 Кбит/сек
Каналы : 2 канала
Частота : 48,0 КГц
Частота кадров : 41,667 кадра/сек (1152 SPF)
Метод сжатия : С потерями
Размер потока : 132 Мбайт (6%)
Язык : Russian
Общее
Полное имя : D:\Павел.Корчагин.1956.DVB-ylnian\Павел.Корчагин.1956.DVB-ylnian_rus.srt
Формат : SubRip
Размер файла : 79,9 Кбайт
Текст
Формат : SubRip
Метод сжатия : Без потерь

Интересно

• Первая роль в кино Льва Перфилова (Франц Клавичек).
• Лидер проката (1957, 15 место) — 25.3 млн. зрителей.
• На роль Павки Корчагина изначально был утверждён Георгий Юматов, который даже начал сниматься, пока внезапно не заболел. Ситуация вынудила режиссёров Алова и Наумова срочно искать замену. Нашли её в соседнем павильоне, где проходили съёмки фильма «Триста лет тому...», в котором снимался студент 3-го курса щукинского училища Василий Лановой. Замена актёра главной роли на долгое время рассорила Юматова с Лановым[1] Помириться актёры смогли только на съёмках фильма Владимира Рогового «Офицеры».
• "Василий Лановой отлично справился с этой задачей. Своим исполнением он как бы осовременил этот классический образ комсомольца двадцатых годов, вдохнул в него новую жизнь, ничего не утратив из литературного образа." — Кинокритик В. Тулякова, 1967 год
• Награды: Международный кинофестиваль. Москва. 1957 год - Серебряная медаль МКФ в Москве-57 (в рамках Всемирного фестиваля молодежи и студентов)
• Награды: Всесоюзный кинофестиваль. Москва. 1958 год - Поощрительные дипломы режиссерам (А.Алов, В.Наумов)
[cybertorrent.ru].t234.torrent 
Торрент: Зарегистрирован [ 2019-03-18 10:04 ] · ADD7945A43E9B65FA3E64F15300AAD34421DBFBB

Скачать .torrent

Скачать

11 KB

Статус: проверено
Скачан: 0 раз
Размер: 2 GB
terms.php
[Профиль] [ЛС]
Показать сообщения:    
Ответить на тему

Текущее время: 19-Авг 03:47

Часовой пояс: UTC ± 0



Вы не можете начинать темы
Вы не можете отвечать на сообщения
Вы не можете редактировать свои сообщения
Вы не можете удалять свои сообщения
Вы не можете голосовать в опросах
Вы не можете прикреплять файлы к сообщениям
Вы можете скачивать файлы