С добрым утром, принцесса / El club de los incomprendidos (Карлос Седес / Carlos Sedes) [2014, Испания, драма, мелодрама, HDRip] MVO (Еврокино) + Original Spa

Ответить на тему
Статистика раздачи
Размер:  1,98 GB   |    Зарегистрирован:  6 месяцев   |    Скачан:  0 раз

Полного источника не было: Никогда

   
 
Автор Сообщение

cyber ®

Пол: Не указан

Стаж: 6 месяцев 6 дней

Сообщений: 162

Создавать темы 18-Мар-2019 10:00

[Цитировать]

С добрым утром, принцесса / El club de los incomprendidos
Страна: Испания
Жанр: драма, мелодрама
Год выпуска: 2014
Продолжительность: 01:45:09
Перевод: Профессиональный (многоголосый закадровый) Еврокино
Субтитры: нет
Оригинальная аудиодорожка: испанский
Режиссер: Карлос Седес / Carlos Sedes
В ролях: Шарлотта Вега
Алекс Маруни
Ивана Бакеро
Michelle Calvó
Андреа Трепа
Хорхе Мартин Клементе
Патрик Криаду
Айтана Санчес-Хихон
Йон Гонсалес
Рауль Аревало
Описание: Для 17-летней Валерии наступили плохие времена: её родители развелись, и она с матерью переезжает в чужой для неё Мадрид. В школе у девушки сразу возникает конфликт, в результате которого её определяют в группу проблемных подростков, с которыми занимается психолог. Но потом оказывается, что всё не так уж фатально: Мадрид — вовсе не плохой город, и там можно найти и хороших друзей, и первую любовь.
Сэмпл: http://multi-up.com/1221812
Качество видео: HDRip
Формат видео: AVI
Видео: MPEG4, XviD, 720x304 (2.35:1), 25.000 fps, 2 043 Kbps (0.373 bit/pixel)
Аудио: AC-3, 48.0 KHz, 2 ch, 192 Kbps, CBR - русский
Аудио 2: AC-3, 48.0 KHz, 6 ch, 448 Kbps, CBR - испанский

MediaInfo

Общее
Полное имя : F:\С добрым утром, принцесса.avi
Формат : AVI
Формат/Информация : Audio Video Interleave
Размер файла : 1,98 Гбайт
Продолжительность : 1 ч. 45 м.
Общий поток : 2697 Кбит/сек
Название фильма : С добрым утром, принцесса / El club de los incomprendidos (2014)
Программа кодирования : VirtualDubMod 1.5.10.2 (build 2540/release)
Библиотека кодирования : VirtualDubMod build 2540/release
Видео
Идентификатор : 0
Формат : MPEG-4 Visual
Профиль формата : Advanced Simple@L5
Настройки формата : BVOP2
Параметр BVOP формата : 2
Параметр QPel формата : Нет
Параметр GMC формата : Без точки перехода
Параметр матрицы формата : Default (MPEG)
Идентификатор кодека : XVID
Идентификатор кодека/Подсказка : XviD
Продолжительность : 1 ч. 45 м.
Битрейт : 2043 Кбит/сек
Ширина : 720 пикселей
Высота : 304 пикселя
Соотношение сторон : 2,35:1
Частота кадров : 25,000 кадров/сек
Цветовое пространство : YUV
Субдискретизация насыщенности : 4:2:0
Битовая глубина : 8 бит
Тип развёртки : Прогрессивная
Метод сжатия : С потерями
Бит/(Пиксели*Кадры) : 0.373
Размер потока : 1,50 Гбайт (76%)
Библиотека кодирования : XviD 1.2.1 (UTC 2008-12-04)
Аудио #1
Идентификатор : 1
Формат : AC-3
Формат/Информация : Audio Coding 3
Коммерческое название : Dolby Digital
Идентификатор кодека : 2000
Продолжительность : 1 ч. 45 м.
Вид битрейта : Постоянный
Битрейт : 192 Кбит/сек
Каналы : 2 канала
Channel layout : L R
Частота : 48,0 КГц
Частота кадров : 31,250 кадров/сек (1536 SPF)
Битовая глубина : 16 бит
Метод сжатия : С потерями
Размер потока : 144 Мбайт (7%)
Выравнивание : Разделение по промежуткам
Продолжительность промежутка : 40 мс. (1,00 видеокадр)
Время предзагрузки промежутка : 500 мс.
Заголовок : Профессиональный (многоголосый, закадровый) Еврокино
ServiceKind/String : Complete Main
Аудио #2
Идентификатор : 2
Формат : AC-3
Формат/Информация : Audio Coding 3
Коммерческое название : Dolby Digital
Идентификатор кодека : 2000
Продолжительность : 1 ч. 45 м.
Вид битрейта : Постоянный
Битрейт : 448 Кбит/сек
Каналы : 6 каналов
Channel layout : L R C LFE Ls Rs
Частота : 48,0 КГц
Частота кадров : 31,250 кадров/сек (1536 SPF)
Битовая глубина : 16 бит
Метод сжатия : С потерями
Размер потока : 337 Мбайт (17%)
Выравнивание : Разделение по промежуткам
Продолжительность промежутка : 40 мс. (1,00 видеокадр)
Время предзагрузки промежутка : 500 мс.
Заголовок : Испанский
ServiceKind/String : Complete Main

Скриншоты


[cybertorrent.ru].t237.torrent 
Торрент: Зарегистрирован [ 2019-03-18 10:04 ] · F1117B4EA89CDA4D32A94969C47342EFFC430DC0

Скачать .torrent

Скачать

20 KB

Статус: проверено
Скачан: 0 раз
Размер: 1,98 GB
terms.php
[Профиль] [ЛС]
Показать сообщения:    
Ответить на тему

Текущее время: 19-Сен 04:03

Часовой пояс: UTC ± 0



Вы не можете начинать темы
Вы не можете отвечать на сообщения
Вы не можете редактировать свои сообщения
Вы не можете удалять свои сообщения
Вы не можете голосовать в опросах
Вы не можете прикреплять файлы к сообщениям
Вы можете скачивать файлы

Партнеры

Выражаем благодарность всем людям, внесшим вклад в наш сайт в далёком прошлом. Мы помним Вас, гордимся Вами и ждём Вас обратно!

Интересное в сети