Риддик / Riddick (Дэвид Туи / David Twohy) [2013, США, Великобритания, боевик, триллер, фантастика, BDRip] [Extended Cut] AVO (Андрей Гаврилов) + AVO (Леонид Володарский)

Ответить на тему
Статистика раздачи
Размер:  2,07 GB   |    Зарегистрирован:  2 месяца 28 дней   |    Скачан:  0 раз

Полного источника не было: Никогда

   
 
Автор Сообщение

cyber ®

Пол: Не указан

Стаж: 3 месяца 3 дня

Сообщений: 90

Создавать темы 18-Мар-2019 10:00

[Цитировать]

Риддик / Riddick
Страна: США, Великобритания
Жанр: боевик, триллер, фантастика
Год выпуска: 2013
Продолжительность: 02:06:47

Перевод: Авторский (одноголосый закадровый) Андрей Гаврилов
Перевод 2: Авторский (одноголосый закадровый) Леонид Володарский
Субтитры: нет
Режиссер: Дэвид Туи / David Twohy
В ролях: Вин Дизель, Хорди Молья, Мэтью Нэйбл, Кэти Сакхофф, Дэйв Батиста, Букем Вудбайн, Рауль Трухильо, Конрад Пла, Дэнни Бланко
Описание: Оказавшись на одной из самых опасных планет в галактике, Риддик вынужден сражаться с местными хищниками, чтобы остаться в живых. Это делает его еще сильнее и опаснее. И когда за ним прилетает группа лучших охотников за головами, фуриец готов к встрече с ними. Ричарду удается уничтожить немало вооруженных до зубов противников практически голыми руками, прежде чем им удается поймать его. Но в этот момент в недрах жестокой планеты просыпаются существа, способные смести корабль наемников в считанные минуты… Теперь охотникам за головами не остается ничего другого, как освободить Риддика и попытаться договориться с ним, ведь иначе эту планету никто не сможет покинуть живым. Новоиспеченные союзники вынуждены сражаться со страшными и жуткими существами, живущими во тьме. Но ведь именно тьма является главным другом без проблем видящего в темноте выходца с Фурии. И только он сможет спасти всю группу от верной гибели....

Сэмпл: http://multi-up.com/1221842
Качество видео: BDRip (Исходник BDRemux 1080p)
Формат видео: AVI
Видео: XviD 73, 720x304, (2,35:1), 23.976 fps, 1548 Кбит/с, 0.29 bit/pixel
Аудио: Русский (АС3, 6 ch (Front: L C R, Side: L R, LFE), 48,0 KHz, 384 Kbps) Андрей Гаврилов
Аудио 2: Русский (АС3, 6 ch (Front: L C R, Side: L R, LFE), 48,0 KHz, 384 Kbps) Леонид Володарский

MediaInfo

Общее
Полное имя : D:\Фильмы на трекер\Риддик (боевик, триллер, фантастика 2013 год).avi
Формат : AVI
Формат/Информация : Audio Video Interleave
Профиль формата : OpenDML
Размер файла : 2,07 Гбайт
Продолжительность : 2 ч. 6 м.
Общий поток : 2334 Кбит/сек
Программа кодирования : VirtualDubMod 1.5.10.2 (build 2540/release)
Библиотека кодирования : VirtualDubMod build 2540/release
Видео
Идентификатор : 0
Формат : MPEG-4 Visual
Профиль формата : Advanced Simple@L5
Параметр BVOP формата : 2
Параметр QPel формата : Нет
Параметр GMC формата : Без точки перехода
Параметр матрицы формата : Выборочная
Идентификатор кодека : XVID
Идентификатор кодека/Подсказка : XviD
Продолжительность : 2 ч. 6 м.
Битрейт : 1548 Кбит/сек
Ширина : 720 пикселей
Высота : 304 пикселя
Соотношение сторон : 2,35:1
Частота кадров : 23,976 (23976/1000) кадра/сек
Цветовое пространство : YUV
Субдискретизация насыщенности : 4:2:0
Битовая глубина : 8 бит
Тип развёртки : Прогрессивная
Метод сжатия : С потерями
Бит/(Пиксели*Кадры) : 0.295
Размер потока : 1,37 Гбайт (66%)
Библиотека кодирования : XviD 73
Аудио #1
Идентификатор : 1
Формат : AC-3
Формат/Информация : Audio Coding 3
Расширение режима : CM (complete main)
Параметр Endianness формата : Big
Идентификатор кодека : 2000
Продолжительность : 2 ч. 6 м.
Вид битрейта : Постоянный
Битрейт : 384 Кбит/сек
Каналы : 6 каналов
Расположение каналов : Front: L C R, Side: L R, LFE
Частота : 48,0 КГц
Частота кадров : 31,250 кадров/сек (1536 spf)
Метод сжатия : С потерями
Размер потока : 348 Мбайт (16%)
Выравнивание : Разделение по промежуткам
Продолжительность промежутка : 42 мс. (1,00 видеокадр)
Время предзагрузки промежутка : 500 мс.
Аудио #2
Идентификатор : 2
Формат : AC-3
Формат/Информация : Audio Coding 3
Расширение режима : CM (complete main)
Параметр Endianness формата : Big
Идентификатор кодека : 2000
Продолжительность : 2 ч. 6 м.
Вид битрейта : Постоянный
Битрейт : 384 Кбит/сек
Каналы : 6 каналов
Расположение каналов : Front: L C R, Side: L R, LFE
Частота : 48,0 КГц
Частота кадров : 31,250 кадров/сек (1536 spf)
Метод сжатия : С потерями
Размер потока : 348 Мбайт (16%)
Выравнивание : Разделение по промежуткам
Продолжительность промежутка : 42 мс. (1,00 видеокадр)
Время предзагрузки промежутка : 500 мс.

Скриншот c названием фильма

Скриншоты

[cybertorrent.ru].t238.torrent 
Торрент: Зарегистрирован [ 2019-03-18 10:04 ] · E3A7B1CFE3BC10D0FD29A25102772611829919A1

Скачать .torrent

Скачать

11 KB

Статус: проверено
Скачан: 0 раз
Размер: 2,07 GB
terms.php
[Профиль] [ЛС]
Показать сообщения:    
Ответить на тему

Текущее время: 16-Июн 08:31

Часовой пояс: UTC ± 0



Вы не можете начинать темы
Вы не можете отвечать на сообщения
Вы не можете редактировать свои сообщения
Вы не можете удалять свои сообщения
Вы не можете голосовать в опросах
Вы не можете прикреплять файлы к сообщениям
Вы можете скачивать файлы