Торо (Талгат Теменов) [1986, драма, короткометражный, DVB] VO

Ответить на тему
Статистика раздачи
Размер:  415 MB   |    Зарегистрирован:  5 месяцев 1 день   |    Скачан:  0 раз

Полного источника не было: Никогда

   
 
Автор Сообщение

edich ®

Пол: Не указан

Стаж: 5 месяцев 7 дней

Сообщений: 159

Создавать темы 18-Мар-2019 10:00

[Цитировать]

Торо Жанр: драма, короткометражный
Студия: Казахфильм
Продолжительность: 00:23:57
Год выпуска: 1986
Перевод: Студийный (одноголосый закадровый)-Режиссёр: Талгат Теменов
В ролях: Болот Бейшеналиев, Айкын Калыков, М. Байтуреев, А. Нусинов, А. Душимов, Д. Чакеев, А. Мандияров, Энуар Даулбаев, А. Досымгалиев-Описание: По мотивам рассказа О. Денетрашвили «Сладкий приз».-
Семпл: http://sendfile.su/1471687-Качество: DVB [Ел Арна] (эфир 28.01.2019)
Формат: TS
Видео: AVC, 720x576 (16:9) @ 1047x576, 25 fps, ~2107 kbps, 0.203 bit/pixel
Аудио: [RUS] MP2, 48 kHz, 2 ch, 192 kbps

Mediainfo

General
ID : 1 (0x1)
Complete name : H:\Раздачи\Торо (1986) [DVB].ts
Format : MPEG-TS
File size : 415 MiB
Duration : 23 min 57 s
Overall bit rate mode : Variable
Overall bit rate : 2 420 kb/s
Video
ID : 67 (0x43)
Menu ID : 1 (0x1)
Format : AVC
Format/Info : Advanced Video Codec
Format profile : High@L3
Format settings : CABAC / 3 Ref Frames
Format settings, CABAC : Yes
Format settings, ReFrames : 3 frames
Format settings, GOP : M=4, N=32
Codec ID : 27
Duration : 23 min 57 s
Bit rate : 2 107 kb/s
Width : 720 pixels
Height : 576 pixels
Display aspect ratio : 16:9
Frame rate : 25.000 FPS
Standard : Component
Color space : YUV
Chroma subsampling : 4:2:0
Bit depth : 8 bits
Scan type : Interlaced
Scan type, store method : Separated fields
Scan order : Top Field First
Bits/(Pixel*Frame) : 0.203
Stream size : 361 MiB (87%)
Color range : Limited
Color primaries : BT.601 PAL
Transfer characteristics : BT.470 System B/G
Matrix coefficients : BT.470 System B/G
Audio
ID : 68 (0x44)
Menu ID : 1 (0x1)
Format : MPEG Audio
Format version : Version 1
Format profile : Layer 2
Codec ID : 3
Duration : 23 min 57 s
Bit rate mode : Constant
Bit rate : 192 kb/s
Channel(s) : 2 channels
Sampling rate : 48.0 kHz
Frame rate : 41.667 FPS (1152 SPF)
Compression mode : Lossy
Delay relative to video : -80 ms
Stream size : 32.9 MiB (8%)
Language : English

Скриншоты

[cybertorrent.ru].t239.torrent 
Торрент: Зарегистрирован [ 2019-03-18 10:04 ] · F3836C59EFF989E98033EEDD37706B95D3B0D3E8

Скачать .torrent

Скачать

17 KB

Статус: проверено
Скачан: 0 раз
Размер: 415 MB
terms.php
[Профиль] [ЛС]
Показать сообщения:    
Ответить на тему

Текущее время: 19-Авг 19:57

Часовой пояс: UTC ± 0



Вы не можете начинать темы
Вы не можете отвечать на сообщения
Вы не можете редактировать свои сообщения
Вы не можете удалять свои сообщения
Вы не можете голосовать в опросах
Вы не можете прикреплять файлы к сообщениям
Вы можете скачивать файлы