Трембита (Олег Николаевский) [1968, СССР, мюзикл, мелодрама, комедия, HDTVRip] + Sub Rus

Ответить на тему
Статистика раздачи
Размер:  1,37 GB   |    Зарегистрирован:  3 месяца 7 дней   |    Скачан:  0 раз

Полного источника не было: Никогда

   
 
Автор Сообщение

edich ®

Пол: Не указан

Стаж: 3 месяца 13 дней

Сообщений: 92

Создавать темы 18-Мар-2019 10:00

[Цитировать]

Трембита
Студия: Свердловская киностудия
Жанр: мюзикл, мелодрама, комедия
Год выпуска: 1968
Продолжительность: 01:27:22
Режиссер: Олег Николаевский
В ролях: Евгений Весник, Ольга Аросева, Алексей Чернов, Николай Трофимов, Людмила Купина, Александр Галевский, Юлия Вуккерт, Иван Переверзев, Савелий Крамаров, Сергей Блинников, Игорь Класс, Галина Короткевич, Иван Матвеев, Валентина Пугачёва, Борис Савченко, Николай Пишванов, Лев Степанов, Илья Клявер
Описание: Чудесная музыкальная комедия по одноименной оперетте Ю. Милютина, В. Масса и М. Червинского. Действие происходит после окончания Великой Отечественной войны в Закарпатье. В небольшом живописном местечке появляется Богдан Сусик (Весник), бывший дворецкий графа Шенброка. Прибыл он на Родину не для того, чтобы восстанавливать народное хозяйство и строить социализм, а потому что только он знал, где спрятаны сокровища сбежавшего помещика, и решил разыскать их. Однако из этой затеи ничего не вышло...
Дополнительная информация:
Автор релиза -
За основу была взята моя запись от 19.01.2019, донорами послужили записи от Parabellumm и от george$t, спасибо им большое
Удалось сделать следующее:
1. Удалены все всплывающие анонсы передач
2. Удалены послерекламные вставки с названием фильма
3. Удалены затемнения картинки перед рекламными роликами
4. Восстановлена 10-тисекундная сцена (00:32:43...00:32:53), которая отсутствовала в записи Parabellumm
Не удалось убрать:
1. Предупреждение о вреде табакокурения (00:02:10...00:02:20)
Источник субтитров - DVB 576i TS - моя запись с канала "ТВ Центр"
Редакторы русских субтитров - Пащенко Л.В. и Ситник А.В. / "ТВ Центр", 2017г.
Очень качественная мастер-копия от Первого канала




Тип релиза: HDTVRip (HDTV 1080i)
Контейнер: AVI
Видео: XviD, 720x304 (2.35:1), 2019 kbps, 25 fps, 0.369 bit/pixel
Аудио: Русский AC3, 48000 Гц, 2ch, 224 kbps

MediaInfo

Общее
Полное имя : E:\Трембита.1968.HDTVRip-ylnian\Трембита.1968.HDTVRip-ylnian.avi
Формат : AVI
Формат/Информация : Audio Video Interleave
Размер файла : 1,37 Гбайт
Продолжительность : 1 ч. 27 м.
Общий поток : 2252 Кбит/сек
Программа кодирования : VirtualDubMod 1.5.10.3 | www.virtualdub-fr.org || (build 2550/release)
Библиотека кодирования : VirtualDubMod build 2550/release
Видео
Идентификатор : 0
Формат : MPEG-4 Visual
Профиль формата : Advanced Simple@L5
Настройки формата : BVOP1 / Custom Matrix
Параметр BVOP формата : 1
Параметр QPel формата : Нет
Параметр GMC формата : Без точки перехода
Параметр матрицы формата : Выборочная
Идентификатор кодека : XVID
Идентификатор кодека/Подсказка : XviD
Продолжительность : 1 ч. 27 м.
Битрейт : 2019 Кбит/сек
Ширина : 720 пикселей
Высота : 304 пикселя
Соотношение сторон : 2,35:1
Частота кадров : 25,000 кадров/сек
Цветовое пространство : YUV
Субдискретизация насыщенности : 4:2:0
Битовая глубина : 8 бит
Тип развёртки : Прогрессивная
Метод сжатия : С потерями
Бит/(Пиксели*Кадры) : 0.369
Размер потока : 1,23 Гбайт (90%)
Библиотека кодирования : XviD 67
Аудио
Идентификатор : 1
Формат : AC-3
Формат/Информация : Audio Coding 3
Коммерческое название : Dolby Digital
Идентификатор кодека : 2000
Продолжительность : 1 ч. 27 м.
Вид битрейта : Постоянный
Битрейт : 224 Кбит/сек
Каналы : 2 канала
Channel layout : L R
Частота : 48,0 КГц
Частота кадров : 31,250 кадров/сек (1536 SPF)
Битовая глубина : 16 бит
Метод сжатия : С потерями
Размер потока : 140 Мбайт (10%)
Выравнивание : Разделение по промежуткам
Продолжительность промежутка : 40 мс. (1,00 видеокадр)
Время предзагрузки промежутка : 500 мс.
ServiceKind/String : Complete Main
Общее
Полное имя : E:\Трембита.1968.HDTVRip-ylnian\Трембита.1968.HDTVRip-ylnian_rus.srt
Размер файла : 92,6 Кбайт

Скриншоты

[cybertorrent.ru].t241.torrent 
Торрент: Зарегистрирован [ 2019-03-18 10:04 ] · 59F7E4DE25D5DBA25438CE609AB88B0C865BD187

Скачать .torrent

Скачать

14 KB

Статус: проверено
Скачан: 0 раз
Размер: 1,37 GB
terms.php
[Профиль] [ЛС]
Показать сообщения:    
Ответить на тему

Текущее время: 25-Июн 22:29

Часовой пояс: UTC ± 0



Вы не можете начинать темы
Вы не можете отвечать на сообщения
Вы не можете редактировать свои сообщения
Вы не можете удалять свои сообщения
Вы не можете голосовать в опросах
Вы не можете прикреплять файлы к сообщениям
Вы можете скачивать файлы