Бархатная бензопила / Velvet Buzzsaw (Дэн Гилрой / Dan Gilroy) [2019, США, ужасы, триллер, комедия, криминал, WEB-DLRip] Dub (Невафильм)

Ответить на тему
Статистика раздачи
Размер:  1,44 GB   |    Зарегистрирован:  5 месяцев   |    Скачан:  0 раз

Полного источника не было: Никогда

   
 
Автор Сообщение

Lew ®

Пол: Не указан

Стаж: 5 месяцев 6 дней

Сообщений: 378

Создавать темы 18-Мар-2019 10:00

[Цитировать]

Бархатная бензопила / Velvet Buzzsaw- Год выхода: 2019
Выпущено: США
Жанр: ужасы, триллер, комедия, криминал
Продолжительность: 01:52:30
Перевод: Профессиональный (полное дублирование) Невафильм
Субтитры: Русские (форсированные) (внешние *.srt)-Режиссер:
Дэн Гилрой / Dan Gilroy-В ролях:
Джейк Джилленхол (Morf Vandewalt), Джон Малкович (Piers), Билли Магнуссен (Bryson), Тони Коллетт (Gretchen), Наталия Дайер (Coco), Рене Руссо (Rhodora Haze), Том Стёрридж (Jon Dondon), Зэйв Эштон (Josephina), Питер Гадиот (Ricky Blane), Пасэй Пау (Attorney), Пэт Хили (Actor)-Описание:
Мир современного искусства населяют самые разные персонажи: ценители, знатоки, художники, воры, обманщики. Все они считают, что знают и любят настоящее искусство. Однажды они сталкиваются с чем-то необычным - потрясающими картинками пожилого художника-затворника. Он словно вложил в свои работы тайный смысл. Герои с жадностью кидаются на полотна, но быстро понимают: за краской и фигурами скрывается нечто зловещее.-Релиз групп | | IMDB | КиноПоиск | Сэмпл |-Качество: WEB-DLRip [Velvet.Buzzsaw.2019.1080p.NF.WEB-DL.DDP5.1.x264-EniaHD]
Формат: AVI
Видео: 704x384 (1.83:1), 24.000 fps, XviD build 67 ~1440 kbps avg, 0.22 bit/pixel
Аудио: 48 kHz, AC3 Dolby Digital, 3/2 (L,C,R,l,r) + LFE ch, ~384 kbps avg-

Скриншоты

-

MediaInfo

Код:Полное имя : D:\Barhatnaya_benzopila_2019_WEB-DLRip_by_Dalemake.avi
Формат : AVI
Формат/Информация : Audio Video Interleave
Размер файла : 1,44 Гбайт
Продолжительность : 1 ч. 52 м.
Общий поток : 1834 Кбит/сек
Программа кодирования : VirtualDubMod 1.5.10.3 | www.virtualdub-fr.org || (build 2550/release)
Библиотека кодирования : VirtualDubMod build 2550/release
Видео
Идентификатор : 0
Формат : MPEG-4 Visual
Профиль формата : Advanced Simple@L5
Параметр BVOP формата : 1
Параметр QPel формата : Нет
Параметр GMC формата : Без точки перехода
Параметр матрицы формата : Выборочная
Идентификатор кодека : XVID
Идентификатор кодека/Подсказка : XviD
Продолжительность : 1 ч. 52 м.
Битрейт : 1440 Кбит/сек
Ширина : 704 пикселя
Высота : 384 пикселя
Соотношение сторон : 1,85:1
Частота кадров : 24,000 кадра/сек
Цветовое пространство : YUV
Субдискретизация насыщенности : 4:2:0
Битовая глубина : 8 бит
Тип развёртки : Прогрессивная
Метод сжатия : С потерями
Бит/(Пиксели*Кадры) : 0.222
Размер потока : 1,13 Гбайт (79%)
Библиотека кодирования : XviD 67
Аудио
Идентификатор : 1
Формат : AC-3
Формат/Информация : Audio Coding 3
Расширение режима : CM (complete main)
Параметр Endianness формата : Big
Идентификатор кодека : 2000
Продолжительность : 1 ч. 52 м.
Вид битрейта : Постоянный
Битрейт : 384 Кбит/сек
Каналы : 6 каналов
Расположение каналов : Front: L C R, Side: L R, LFE
Частота : 48,0 КГц
Метод сжатия : С потерями
Размер потока : 309 Мбайт (21%)
Выравнивание : Разделение по промежуткам
Продолжительность промежутка : 42 мс. (1,00 видеокадр)
Время предзагрузки промежутка : 500 мс.
-Цитата:
* Релиз создан при финансовой поддержке EniaHD
[cybertorrent.ru].t247.torrent 
Торрент: Зарегистрирован [ 2019-03-18 10:04 ] · 75418D87573EC4E08E2CEFC5777A9934462C270A

Скачать .torrent

Скачать

15 KB

Статус: проверено
Скачан: 0 раз
Размер: 1,44 GB
terms.php
[Профиль] [ЛС]
Показать сообщения:    
Ответить на тему

Текущее время: 18-Авг 23:13

Часовой пояс: UTC ± 0



Вы не можете начинать темы
Вы не можете отвечать на сообщения
Вы не можете редактировать свои сообщения
Вы не можете удалять свои сообщения
Вы не можете голосовать в опросах
Вы не можете прикреплять файлы к сообщениям
Вы можете скачивать файлы