Железные игры (Леонид Мартынюк) [1979, спорт, мелодрама, DVB] + Sub Rus

Ответить на тему
Статистика раздачи
Размер:  1,39 GB   |    Зарегистрирован:  2 месяца 29 дней   |    Скачан:  0 раз

Полного источника не было: Никогда

   
 
Автор Сообщение

edich ®

Пол: Не указан

Стаж: 3 месяца 3 дня

Сообщений: 91

Создавать темы 18-Мар-2019 10:00

[Цитировать]

Железные игры
Студия: Беларусьфильм
Жанр: спорт, мелодрама
Год выпуска: 1979
Продолжительность: 01:10:17
Режиссер: Леонид Мартынюк
В ролях: Александр Пороховщиков, Владимир Сынгаевский, Пётр Щербаков, Георгий Штиль, Наталья Фатеева, Ирина Калистратова, Тамара Чернова, Владимир Сичкарь, Александр Беспалый, Юрий Ступаков, Александр Кашперов, Игорь Смушкевич, Анатолий Лукьяненко, Евгений Ширяев, Юрий Баталов, Владимир Грицевский, Нинель Жуковская, Петр Юрченков ст., Игорь Стариков
Описание: Известный штангист Николай Басаргин, мечтая завершить свою карьеру установлением рекорда, пока переживает полосу явных поражений. Тем временем тренер Милютин, поставив крест на отслужившем свое спортсмене, принимается тренировать Володю Кроля. От чрезмерно интенсивных нагрузок молодой спортсмен получает травму. И тогда, не считаясь с обидами, Басаргин помогает Кролю обрести спортивную форму и уверенность в себе.
Дополнительная информация:
Автор релиза -
Источник субтитров и видео - DVB 576i TS - моя запись с канала "Россия К"
Редактор русских субтитров - Л.Коржанова / ВГТРК



Рекламы нет!
Качество видео: DVB
Формат видео: MKV
Видео: MPEG-4, 720x576@1024х576 (16:9), 25.000 fps, 2582 kbps, 0.249 bit/pixel
Аудио: Русский MP2, 48000 Гц, 2ch, 192 kbps
Формат субтитров: softsub (SRT)

MediaInfo

Общее
Уникальный идентификатор : 251976858452642839517145523075502254082 (0xBD90FA4A758CA73589C44226E3432802)
Полное имя : D:\Железные.игры.1979.DVB-ylnian.mkv
Формат : Matroska
Версия формата : Version 2
Размер файла : 1,39 Гбайт
Продолжительность : 1 ч. 10 м.
Общий поток : 2830 Кбит/сек
Дата кодирования : UTC 2019-02-01 19:34:44
Программа кодирования : mkvmerge v5.8.0 ('No Sleep / Pillow') built on Sep 2 2012 15:37:04
Библиотека кодирования : libebml v1.2.3 + libmatroska v1.3.0
Видео
Идентификатор : 1
Формат : AVC
Формат/Информация : Advanced Video Codec
Профиль формата : Main@L3
Настройки формата : CABAC / 3 Ref Frames
Параметр CABAC формата : Да
Параметр RefFrames формата : 3 кадра
Идентификатор кодека : V_MPEG4/ISO/AVC
Продолжительность : 1 ч. 10 м.
Битрейт : 2582 Кбит/сек
Ширина : 720 пикселей
Высота : 576 пикселей
Соотношение сторон : 16:9
Режим частоты кадров : Постоянный
Частота кадров : 25,000 кадров/сек
Стандарт вещания : Component
Цветовое пространство : YUV
Субдискретизация насыщенности : 4:2:0
Битовая глубина : 8 бит
Тип развёртки : Чересстрочная
Метод сохранения типа развёртки : Раздельные поля
Порядок развёртки : Верхнее поле первое
Бит/(Пиксели*Кадры) : 0.249
Размер потока : 1,27 Гбайт (91%)
Язык : Russian
Default : Да
Forced : Да
Цветовой диапазон : Limited
Основные цвета : BT.601 PAL
Характеристики трансфера : BT.470 System B/G
Коэффициенты матрицы : BT.470 System B/G
Аудио
Идентификатор : 2
Формат : MPEG Audio
Версия формата : Version 1
Профиль формата : Layer 2
Идентификатор кодека : A_MPEG/L2
Идентификатор кодека/Подсказка : MP2
Продолжительность : 1 ч. 10 м.
Вид битрейта : Постоянный
Битрейт : 192 Кбит/сек
Каналы : 2 канала
Частота : 48,0 КГц
Метод сжатия : С потерями
Размер потока : 96,5 Мбайт (7%)
Язык : Russian
Default : Да
Forced : Да
Текст
Идентификатор : 3
Формат : UTF-8
Идентификатор кодека : S_TEXT/UTF8
Идентификатор кодека/Информация : UTF-8 Plain Text
Язык : Russian
Default : Да
Forced : Да
[cybertorrent.ru].t249.torrent 
Торрент: Зарегистрирован [ 2019-03-18 10:04 ] · DE7B2D955F9E0B1A8003EC067422DB354F0A6BC1

Скачать .torrent

Скачать

14 KB

Статус: проверено
Скачан: 0 раз
Размер: 1,39 GB
terms.php
[Профиль] [ЛС]
Показать сообщения:    
Ответить на тему

Текущее время: 16-Июн 10:13

Часовой пояс: UTC ± 0



Вы не можете начинать темы
Вы не можете отвечать на сообщения
Вы не можете редактировать свои сообщения
Вы не можете удалять свои сообщения
Вы не можете голосовать в опросах
Вы не можете прикреплять файлы к сообщениям
Вы можете скачивать файлы