Гринч / The Grinch (Ярроу Чейни / Yarrow Cheney, Скотт Моужер / Scott Mosier) [2018, Франция, Китай, Япония, США, Мультфильм, фэнтези, комедия, семейный, HDRip] MVO (@MUZOBOZ@)

Ответить на тему
Статистика раздачи
Размер:  1,46 GB   |    Зарегистрирован:  5 месяцев   |    Скачан:  0 раз

Полного источника не было: Никогда

   
 
Автор Сообщение

karlll ®

Пол: Не указан

Стаж: 5 месяцев 6 дней

Сообщений: 163

Создавать темы 18-Мар-2019 10:00

[Цитировать]

Гринч / The Grinch«Символ нового года»- Страна: Франция, Китай, Япония, США
Жанр: Мультфильм, фэнтези, комедия, семейный
Продолжительность: 01:25:49
Год выпуска: 2018
Перевод: Любительский (многоголосый закадровый) - @MUZOBOZ@
Русские субтитры: нет-Режиссёр: Ярроу Чейни / Yarrow Cheney, Скотт Моужер / Scott Mosier-Роли озвучивали: Бенедикт Камбербэтч, Кэмерон Сили, Рашида Джонс, Фаррелл Уильямс, Тристан О`Хара, Кенан Томпсон, Сэм Лаваньино, Рамон Хэмилтон, Анджела Лэнсбери, Скарлет Эстевез, Майкл Битти, Лори Алан, Ивэн Кишияма-Описание: Любой бы на месте Гринча позеленел и взбесился. Как порядочный интроверт он живёт в тёмной пещере на самой вершине горы подальше ото всех, но эти «все» готовят грандиознейшее празднование нового года. Они шумят, всё украшают и дико бесят. Кто бы отказал себе в удовольствии испортить праздник? Гринч решает украсть Новый год.

Качество: HDRip
Формат: AVI
Видео: 720x304 (2.35:1), 23.976 fps, XviD build 73, 1980 Kbps
Аудио: 48 kHz, AC3, 6 ch, 448 Kbps [ремастеринг - Ash61]
Субтитры: Русские форсированные (отдельно)
Рекламы нет!

Подробные технические данные

General
Complete name : Downloads\The.Grinch.2018.BDRip.1.46Gb
Format : AVI
Format/Info : Audio Video Interleave
File size : 1.46 GiB
Duration : 1h 25mn
Overall bit rate : 2 437 Kbps
Writing application : VirtualDubMod 1.5.10.3 | www.virtualdub-fr.org || (build 2550/release)
Writing library : VirtualDubMod build 2550/release
Video #0
ID : 0
Format : MPEG-4 Visual
Format profile : Advanced Simple@L5
Format settings, BVOP : 1
Format settings, QPel : No
Format settings, GMC : No warppoints
Format settings, Matrix : Custom
Codec ID : XVID
Codec ID/Hint : XviD
Duration : 1h 25mn
Bit rate : 1 980 Kbps
Width : 720 pixels
Height : 304 pixels
Display aspect ratio : 2.35:1
Frame rate : 23.976 fps
Color space : YUV
Chroma subsampling : 4:2:0
Bit depth : 8 bits
Scan type : Progressive
Compression mode : Lossy
Bits/(Pixel*Frame) : 0.377
Stream size : 1.19 GiB (81%)
Writing library : XviD 73
Audio #1
ID : 1
Format : AC-3
Format/Info : Audio Coding 3
Mode extension : CM (complete main)
Format settings, Endianness : Big
Codec ID : 2000
Duration : 1h 25mn
Bit rate mode : Constant
Bit rate : 448 Kbps
Channel(s) : 6 channels
Channel positions : Front: L C R, Side: L R, LFE
Sampling rate : 48.0 KHz
Bit depth : 16 bits
Compression mode : Lossy
Stream size : 275 MiB (18%)
Alignment : Split accross interleaves
Interleave, duration : 42 ms (1.00 video frame)
Interleave, preload duration : 500 ms

Скриншоты

[cybertorrent.ru].t253.torrent 
Торрент: Зарегистрирован [ 2019-03-18 10:04 ] · CAF9AF01525AB010A31AE4A39BE1357659A71D5E

Скачать .torrent

Скачать

15 KB

Статус: проверено
Скачан: 0 раз
Размер: 1,46 GB
terms.php
[Профиль] [ЛС]
Показать сообщения:    
Ответить на тему

Текущее время: 19-Авг 04:03

Часовой пояс: UTC ± 0



Вы не можете начинать темы
Вы не можете отвечать на сообщения
Вы не можете редактировать свои сообщения
Вы не можете удалять свои сообщения
Вы не можете голосовать в опросах
Вы не можете прикреплять файлы к сообщениям
Вы можете скачивать файлы