Вращающиеся двери / Les portes tournantes (Френсис Манкевич / Francis Mankiewicz) [1988, Канада, Франция, драма, DVDRip] DVO (Владислав Данилов, Алена Соколова) + Sub Rus (Антон Каптелов) + Original Fra

Ответить на тему
Статистика раздачи
Размер:  1,78 GB   |    Зарегистрирован:  3 месяца 14 дней   |    Скачан:  0 раз

Полного источника не было: Никогда

   
 
Автор Сообщение

serzh ®

Пол: Не указан

Стаж: 5 месяцев 7 дней

Сообщений: 350

Создавать темы 05-Май-2019 16:31

[Цитировать]

Вращающиеся двери / Les portes tournantes
Страна: Канада, Франция
Жанр: драма
Год выпуска: 1988
Продолжительность: 01:41:13
Перевод: Любительский (двухголосый закадровый) Владислав Данилов, Алена Соколова
Субтитры: русские (Антон Каптелов)
Оригинальная аудиодорожка: французский
Режиссер: Френсис Манкевич / Francis Mankiewicz
В ролях: Франсуа Мете / Francois Methe, Моника Спациани / Monique Spaziani, Габриэль Аркан / Gabriel Arcand, Миу-Миу / Miou-Miou, Жак Пено / Jacques Penot, Франсуаза Фочер / Francoise Faucher, Жан-Луи Ру / Jean-Louis Roux, Реми Жирар / Remy Girard, Рита Лафонтен / Rita Lafontaine, Хьюберт Луизелл / Hubert Loiselle и др.
Описание: В руки десятилетнего Антуана, сына одинокого художника, случайно попадает дневник бабушки - известной джазовой пианистки, много лет назад уехавшей в Нью-Йорк. Читая воспоминания, мальчик как бы заново проживает её жизнь, несколько раз менявшуюся коренным образом. Это производит на Антуана такое впечатление, что он решает найти бабушку.
Интерпретация одноимённого романа Жака Савойя.
Доп. информация: https://www.imdb.com/title/tt0095891/
Перевод - Антон Каптелов 2019
Озвучание - Владислав Данилов и Алёна Соколова 2019
Cведение звука - Diablo
Сэмпл: http://multi-up.com/1231286
Качество видео: DVDRip
Формат видео: AVI
Видео: XviD, 720x400 (16:9), 23.976 fps, 1609 kbps
Аудио: AC3, 48000 Hz, 6 ch, 448 kbps (русский)
Аудио 2: AC3, 48000 Hz, 6 ch, 448 kbps (французский)
Формат субтитров: softsub (SRT)

MediaInfo

General
Complete name : F:\Рутрекер\Вращающиеся двери\Les portes tournantes (1988).avi
Format : AVI
Format/Info : Audio Video Interleave
File size : 1.78 GiB
Duration : 1h 41mn
Overall bit rate : 2 519 Kbps
Writing application : VirtualDubMod 1.5.10.2 (build 2542/release)
Writing library : VirtualDubMod build 2542/release
Video
ID : 0
Format : MPEG-4 Visual
Format profile : Advanced Simple@L5
Format settings, BVOP : 1
Format settings, QPel : No
Format settings, GMC : No warppoints
Format settings, Matrix : Default (MPEG)
Codec ID : XVID
Codec ID/Hint : XviD
Duration : 1h 41mn
Bit rate : 1 609 Kbps
Width : 720 pixels
Height : 400 pixels
Display aspect ratio : 16:9
Frame rate : 23.976 fps
Color space : YUV
Chroma subsampling : 4:2:0
Bit depth : 8 bits
Scan type : Progressive
Compression mode : Lossy
Bits/(Pixel*Frame) : 0.233
Stream size : 1.14 GiB (64%)
Writing library : XviD 1.2.1 (UTC 2008-12-04)
Audio #1
ID : 1
Format : AC-3
Format/Info : Audio Coding 3
Mode extension : CM (complete main)
Format settings, Endianness : Big
Codec ID : 2000
Duration : 1h 41mn
Bit rate mode : Constant
Bit rate : 448 Kbps
Channel(s) : 6 channels
Channel positions : Front: L C R, Side: L R, LFE
Sampling rate : 48.0 KHz
Bit depth : 16 bits
Compression mode : Lossy
Stream size : 324 MiB (18%)
Alignment : Split accross interleaves
Interleave, duration : 42 ms (1.00 video frame)
Interleave, preload duration : 500 ms
Audio #2
ID : 2
Format : AC-3
Format/Info : Audio Coding 3
Mode extension : CM (complete main)
Format settings, Endianness : Big
Codec ID : 2000
Duration : 1h 41mn
Bit rate mode : Constant
Bit rate : 448 Kbps
Channel(s) : 6 channels
Channel positions : Front: L C R, Side: L R, LFE
Sampling rate : 48.0 KHz
Bit depth : 16 bits
Compression mode : Lossy
Stream size : 324 MiB (18%)
Alignment : Split accross interleaves
Interleave, duration : 42 ms (1.00 video frame)
Interleave, preload duration : 500 ms

Скриншот c названием фильма

[cybertorrent.ru].t2562.torrent 
Торрент: Зарегистрирован [ 2019-05-05 16:32 ] · C9E6C8B238568C8EF87FF9E37FD0C159FA7B39E5

Скачать .torrent

Скачать

18 KB

Статус: проверено
Скачан: 0 раз
Размер: 1,78 GB
terms.php
[Профиль] [ЛС]
Показать сообщения:    
Ответить на тему

Текущее время: 19-Авг 18:13

Часовой пояс: UTC ± 0



Вы не можете начинать темы
Вы не можете отвечать на сообщения
Вы не можете редактировать свои сообщения
Вы не можете удалять свои сообщения
Вы не можете голосовать в опросах
Вы не можете прикреплять файлы к сообщениям
Вы можете скачивать файлы