Сирена / Siren / Сезон: 2 / Серии: 1-7 из 16 (Ник Копус, Джей Карас, Скотт Чарльз Стюарт) [2019, США, Фэнтези, драма, WEBRip] DVO (Gears Media) + Original

Ответить на тему
Статистика раздачи
Размер:  3,6 GB   |    Зарегистрирован:  2 месяца 7 дней   |    Скачан:  0 раз

Полного источника не было: Никогда

   
 
Автор Сообщение

Рамфоринх ®

Пол: Не указан

Стаж: 2 месяца 13 дней

Сообщений: 213

Создавать темы 18-Мар-2019 10:00

[Цитировать]

Сирена / Siren
Год выпуска: 2019
Страна: США
Жанр: Фэнтези, драма
Продолжительность: ~ 00:43:00
Перевод: Профессиональный (двухголосый закадровый)[Gears Media]
Режиссёр: Ник Копус, Джей Карас, Скотт Чарльз Стюарт
В ролях: Элайн Пауэлл, Фола Эванс-Экинбола, Сибонгиле Мламбо, Йен Вердён, Рина Оуэн, Рон Юань, Тэмми Гиллис, Кертис Льюм, Чад Рук, Энтони Харрисон
Описание:
У каждого маленького городка есть свои истории, которые его жители передают из поколения в поколение. Небольшой прибрежный городок Бристоль Кейв когда-то был местом обитания русалок, и, если верить городским легендам, эти существа вовсе не были столь безобидными, как в мультфильмах или сказках. Может быть, все это выдумки, но Бену с детства нравилось слушать рассказы о русалках. Став взрослым, парень выучился на морского биолога, но он даже не подозревал, что однажды сможет убедиться в существовании русалок. Этому предшествовала встреча Бена с Рин – загадочной девушкой, которая однажды выскочила на дорогу перед его машиной. Бен довольно быстро понимает, что Рин – необычная девушка, тем более что после ее появления в Бристоль Кейве начинают происходить странные события. Что все это сулит их городку, жизнь в котором всегда была мирной и тихой? В ролях: Элайн Пауэлл («Меч короля Артура»), Алекс Ро («5-я волна»), Фола Эванс-Экинбола («Игра престолов»), Рина Оуэн («Проливы»), Йен Вердён («Люцифер») и другие.
Ссылка на предыдущие и альтернативные раздачи: http://cybertorrent.ru/forum/tracker.php?nm=Siren
Сэмпл: http://multi-up.com/1222482
Качество: WEBRip
Формат: AVI
Видео: XviD, 720x400 at 23.976 fps, ~1400 kbps avg
Аудио1: Russian, MP3, 48 kHz, 2 ch, 128 kbps
Аудио2: English, MP3, 48 kHz, 2 ch, 128 kbps
Субтитры: нет
Реклама: аудио (два раза, в начале и конце, по 12 сек.)

MediaInfo

Format : AVI
Format/Info : Audio Video Interleave
File size : 511 MiB
Duration : 42 min 3 s
Overall bit rate : 1 700 kb/s
Writing application : Lavf57.29.101
Video
ID : 0
Format : xvid
Codec ID : xvid
Duration : 42 min 3 s
Bit rate : 1 423 kb/s
Width : 720 pixels
Height : 400 pixels
Display aspect ratio : 16:9
Frame rate : 23.976 (24000/1001) FPS
Scan type : Progressive
Bits/(Pixel*Frame) : 0.206
Stream size : 428 MiB (84%)
Audio #1
ID : 1
Format : MPEG Audio
Format version : Version 1
Format profile : Layer 3
Format settings : Joint stereo / MS Stereo
Codec ID : 55
Codec ID/Hint : MP3
Duration : 42 min 3 s
Bit rate mode : Constant
Bit rate : 128 kb/s
Channel(s) : 2 channels
Sampling rate : 48.0 kHz
Compression mode : Lossy
Stream size : 38.5 MiB (8%)
Alignment : Aligned on interleaves
Interleave, duration : 24 ms (0.58 video frame)
Interleave, preload duratio : 24 ms
Title : Gears Media
Audio #2
ID : 2
Format : MPEG Audio
Format version : Version 1
Format profile : Layer 3
Format settings : Joint stereo / MS Stereo
Codec ID : 55
Codec ID/Hint : MP3
Duration : 42 min 3 s
Bit rate mode : Constant
Bit rate : 128 kb/s
Channel(s) : 2 channels
Sampling rate : 48.0 kHz
Compression mode : Lossy
Stream size : 38.5 MiB (8%)
Alignment : Aligned on interleaves
Interleave, duration : 24 ms (0.58 video frame)
Interleave, preload duratio : 24 ms

Скриншоты




Внимание! Раздача ведётся путём добавления новых серий

Внимание! Раздача ведётся путём добавления новых серий; при каждом добавлении создаётся новый торрент. Чтобы начать докачку новой серии, пользователям необходимо сделать следующее:
(1) остановить скачивание,
(2) удалить старый торрент у себя из клиента (старые серии удалять не надо),
(3) скачать новый торрент и запустить его у себя в клиенте вместо старого, при этом указать клиенту путь в старую папку куда и должно происходить скачивание новых серий.
Ваш клиент при этом должен произвести хеширование (проверку) старой папки (если не производит сам - помогите ему сделать это), и будет докачивать только те серии которых у вас ещё нет. Старые серии при этом не удаляются, а продолжают раздаваться!
Eсли вы уже удалили старые серии, то предотвратить повторную закачку старых серий можно, отжав галочку в соответствующих местах при запуске нового торрента. По возможности, желательно не удалять старые серии как можно дольше чтобы релизёр не столько продолжал раздавать старые серии, а смог сконцентрироваться на новых.
[cybertorrent.ru].t257.torrent 
Торрент: Зарегистрирован [ 2019-03-18 10:04 ] · 7AABDF5BA99A67B827D232FC62E6D6953477E1F7

Скачать .torrent

Скачать

19 KB

Статус: проверено
Скачан: 0 раз
Размер: 3,6 GB
terms.php
[Профиль] [ЛС]
Показать сообщения:    
Ответить на тему

Текущее время: 25-Май 14:54

Часовой пояс: UTC ± 0



Вы не можете начинать темы
Вы не можете отвечать на сообщения
Вы не можете редактировать свои сообщения
Вы не можете удалять свои сообщения
Вы не можете голосовать в опросах
Вы не можете прикреплять файлы к сообщениям
Вы можете скачивать файлы