Ночной визит (Анатолий Эйрамджан) [1998, мелодрама, комедия, HDTVRip]

Ответить на тему
Статистика раздачи
Размер:  742 MB   |    Зарегистрирован:  1 месяц 9 дней   |    Скачан:  0 раз

Полного источника не было: Никогда

   
 
Автор Сообщение

Rodin ®

Пол: Не указан

Стаж: 3 месяца 3 дня

Сообщений: 120

Создавать темы 06-Май-2019 16:57

[Цитировать]

Ночной визит
Год выпуска: 1998
Жанр: мелодрама, комедия
Продолжительность: 01:03:57.479 (95937 frames)
Субтитры: нет
Режиссер: Анатолий Эйрамджан
В ролях: Михаил Державин, Татьяна Васильева, Юрий Мороз, Галина Беляева
Описание: Достопочтенный пятижёнец Михаил уличает свою молодую жену в измене. Новоиспеченный рогоносец, узнав адрес виновника случившегося, решает нанести тайный ночной визит жене своего соперника Татьяне.
Качество: HDTVRip
Формат: AVI
Видео кодек: XviD
Аудио кодек: МР3
Видео: 656x480 (1.37:1), 25 fps, XviD build 73 ~1484 kbps avg, 0.19 bit/pixel
Аудио: 48 kHz, MPEG Layer 3, 2 ch, ~128.00 kbps avg

Медиаинфо

General
Complete name : E:\004 Мои раздачи\Ночной визит 745\nochnoi_vizit_745_by_bm11.avi
Format : AVI
Format/Info : Audio Video Interleave
File size : 742 MiB
Duration : 1h 3mn
Overall bit rate : 1 623 Kbps
Director : bm11
Writing application : VirtualDubMod 1.5.10.3 | www.virtualdub-fr.org || (build 2550/release)
Video
ID : 0
Format : MPEG-4 Visual
Format profile : Advanced Simple@L5
Format settings, BVOP : 1
Format settings, QPel : No
Format settings, GMC : No warppoints
Format settings, Matrix : Custom
Codec ID : XVID
Codec ID/Hint : XviD
Duration : 1h 3mn
Bit rate : 1 485 Kbps
Width : 656 pixels
Height : 480 pixels
Display aspect ratio : 4:3
Frame rate : 25.000 fps
Color space : YUV
Chroma subsampling : 4:2:0
Bit depth : 8 bits
Scan type : Progressive
Compression mode : Lossy
Bits/(Pixel*Frame) : 0.189
Stream size : 679 MiB (92%)
Writing library : XviD 73
Audio
ID : 1
Format : MPEG Audio
Format version : Version 1
Format profile : Layer 3
Codec ID : 55
Codec ID/Hint : MP3
Duration : 1h 3mn
Bit rate mode : Constant
Bit rate : 128 Kbps
Channel(s) : 2 channels
Sampling rate : 48.0 KHz
Compression mode : Lossy
Stream size : 58.6 MiB (8%)
Alignment : Aligned on interleaves
Interleave, duration : 40 ms (1.00 video frame)
Interleave, preload duratio : 504 ms
Writing library : LAME3.99r
Encoding settings : -m s -V 4 -q 2 -lowpass 17 -b 128
[cybertorrent.ru].t2578.torrent 
Торрент: Зарегистрирован [ 2019-05-06 16:58 ] · 3881443566D409352C63282792EAA1B4E7452F2D

Скачать .torrent

Скачать

15 KB

Статус: проверено
Скачан: 0 раз
Размер: 742 MB
terms.php
[Профиль] [ЛС]
Показать сообщения:    
Ответить на тему

Текущее время: 16-Июн 03:15

Часовой пояс: UTC ± 0



Вы не можете начинать темы
Вы не можете отвечать на сообщения
Вы не можете редактировать свои сообщения
Вы не можете удалять свои сообщения
Вы не можете голосовать в опросах
Вы не можете прикреплять файлы к сообщениям
Вы можете скачивать файлы