Неудержимый / Его не остановить / Bullet to the head (Уолтер Хилл / Walter Hill) [2012, США, боевик, криминал, триллер, BDRip] AVO (Леонид Володарский) + AVO (Юрий Сербин)

Ответить на тему
Статистика раздачи
Размер:  1,48 GB   |    Зарегистрирован:  2 месяца 29 дней   |    Скачан:  0 раз

Полного источника не было: Никогда

   
 
Автор Сообщение

cyber ®

Пол: Не указан

Стаж: 3 месяца 4 дня

Сообщений: 90

Создавать темы 18-Мар-2019 10:00

[Цитировать]

Неудержимый / Его не остановить / Bullet to the head
Страна: США
Жанр: боевик, криминал, триллер
Год выпуска: 2012
Продолжительность: 01:31:33

Перевод: Авторский (одноголосый закадровый) Леонид Володарский
Перевод 2: Авторский (одноголосый закадровый) Юрий Сербин
Субтитры: нет
Режиссер: Уолтер Хилл / Walter Hill

В ролях: Сильвестр Сталлоне, Сон Ган, Сара Шахи, Джейсон Момоа, Кристиан Слэйтер, Джон Седа, Холт МакКэллани, Брайан Ван Холт, Вероника Розати
Описание: Киллер из Нового Орлеана объединяется с молодым полицейским, расследуя дело, которое выводит их с мрачных задворок Нового Орлеана в светлые коридоры правительственных зданий в Вашингтоне. Необычный дуэт формируется в результате двух жестоких убийств. Герои убирают всех, кто стоит у них на пути, и готовы пожертвовать всем, чтобы отомстить....

Сэмпл: http://multi-up.com/1222713
Качество видео: BDRip (Исходник BDRemux 1080p)
Формат видео: AVI
Видео: XviD 73, 720x384, (1,85:1), 23,976 fps, 1527 Кбит/с, 8 бит
Аудио: Русский (АС3, 6 ch (Front: L C R, Side: L R, LFE), 48,0 KHz, 384 Kbps) Леонид Володарский
Аудио 2: Русский (АС3, 6 ch (Front: L C R, Side: L R, LFE), 48,0 KHz, 384 Kbps) Юрий Сербин

MediaInfo

Общее
Полное имя : D:\Фильмы на трекер\Неудержимый (боевик, криминал, триллер 2012 год).avi
Формат : AVI
Формат/Информация : Audio Video Interleave
Размер файла : 1,48 Гбайт
Продолжительность : 1 ч. 31 м.
Общий поток : 2309 Кбит/сек
Программа кодирования : VirtualDubMod 1.5.10.2 (build 2540/release)
Библиотека кодирования : VirtualDubMod build 2540/release
Видео
Идентификатор : 0
Формат : MPEG-4 Visual
Профиль формата : Advanced Simple@L5
Параметр BVOP формата : 2
Параметр QPel формата : Нет
Параметр GMC формата : Без точки перехода
Параметр матрицы формата : Выборочная
Идентификатор кодека : XVID
Идентификатор кодека/Подсказка : XviD
Продолжительность : 1 ч. 31 м.
Битрейт : 1527 Кбит/сек
Ширина : 720 пикселей
Высота : 384 пикселя
Соотношение сторон : 1,85:1
Частота кадров : 23,976 (23976/1000) кадра/сек
Цветовое пространство : YUV
Субдискретизация насыщенности : 4:2:0
Битовая глубина : 8 бит
Тип развёртки : Прогрессивная
Метод сжатия : С потерями
Бит/(Пиксели*Кадры) : 0.230
Размер потока : 1000 Мбайт (66%)
Библиотека кодирования : XviD 73
Аудио #1
Идентификатор : 1
Формат : AC-3
Формат/Информация : Audio Coding 3
Расширение режима : CM (complete main)
Параметр Endianness формата : Big
Идентификатор кодека : 2000
Продолжительность : 1 ч. 31 м.
Вид битрейта : Постоянный
Битрейт : 384 Кбит/сек
Каналы : 6 каналов
Расположение каналов : Front: L C R, Side: L R, LFE
Частота : 48,0 КГц
Частота кадров : 31,250 кадров/сек (1536 spf)
Метод сжатия : С потерями
Размер потока : 251 Мбайт (17%)
Выравнивание : Разделение по промежуткам
Продолжительность промежутка : 42 мс. (1,00 видеокадр)
Время предзагрузки промежутка : 500 мс.
Аудио #2
Идентификатор : 2
Формат : AC-3
Формат/Информация : Audio Coding 3
Расширение режима : CM (complete main)
Параметр Endianness формата : Big
Идентификатор кодека : 2000
Продолжительность : 1 ч. 31 м.
Вид битрейта : Постоянный
Битрейт : 384 Кбит/сек
Каналы : 6 каналов
Расположение каналов : Front: L C R, Side: L R, LFE
Частота : 48,0 КГц
Частота кадров : 31,250 кадров/сек (1536 spf)
Метод сжатия : С потерями
Размер потока : 251 Мбайт (17%)
Выравнивание : Разделение по промежуткам
Продолжительность промежутка : 42 мс. (1,00 видеокадр)
Время предзагрузки промежутка : 500 мс.

Скриншот c названием фильма

Скриншоты

[cybertorrent.ru].t261.torrent 
Торрент: Зарегистрирован [ 2019-03-18 10:04 ] · 493B074C2B8473AE5008C2F346C5E7A0A8CD256E

Скачать .torrent

Скачать

15 KB

Статус: проверено
Скачан: 0 раз
Размер: 1,48 GB
terms.php
[Профиль] [ЛС]
Показать сообщения:    
Ответить на тему

Текущее время: 16-Июн 19:43

Часовой пояс: UTC ± 0



Вы не можете начинать темы
Вы не можете отвечать на сообщения
Вы не можете редактировать свои сообщения
Вы не можете удалять свои сообщения
Вы не можете голосовать в опросах
Вы не можете прикреплять файлы к сообщениям
Вы можете скачивать файлы