Чернобыль / Chernobyl / Сезон: 1 / Серии: 1 из 5 (Йохан Ренк) [2019, Великобритания, США, Драма, история, WEB-DLRip] MVO (Amedia) + Original + Sub (Rus, Eng)

Ответить на тему
Статистика раздачи
Размер:  787 MB   |    Зарегистрирован:  4 месяца 8 дней   |    Скачан:  0 раз
Сидов:  194  [  0 KB/s  ]   Личеров:  4  [  0 KB/s  ]  
   
 
Автор Сообщение

Рамфоринх ®

Пол: Не указан

Стаж: 6 месяцев 3 дня

Сообщений: 366

Создавать темы 07-Май-2019 17:25

[Цитировать]

Чернобыль / Chernobyl
- Год выпуска: 2019
Страна: Великобритания, США
Жанр: Драма, история
Продолжительность: ~01:00:00-Перевод: Профессиональный (многоголосый закадровый) | Novamedia по заказу Amedia-Режиссёр: Йохан Ренк-В ролях: Джаред Харрис, Стеллан Скарсгард, Эмили Уотсон, Джошуа Лис, Росс Армстронг, Фил Барантини, Джесси Бакли, Джеймс Космо, Дэниэл Стоунер, Карл Дейвис-Описание: История об аварии на Чернобыльской АЭС в 1986 году, эвакуации жителей Припяти и ликвидации последствий. «Чернобыль» драматизирует истинную историю одной из худших техногенных катастроф в истории и рассказывает о храбрых мужчинах и женщинах, которые пожертвовали собой, чтобы спасти Европу от невообразимой катастрофы.- -

[box=#d2d2d2,#000000]Ссылка на предыдущие и альтернативные раздачи[/box]-Качество: WEB-DLRip
Формат: AVI
Видео: XviD, 704x352, 23,976 fps, ~1600 kbps
Аудио #1: 48 kHz, MPEG Layer 3, 2 ch, ~128.00 kbps | Rus
Аудио #2: 48 kHz, MPEG Layer 3, 2 ch, ~128.00 kbps | Eng
Субтитры: Русские (амедиа), английские
Реклама: нет
Спасибо: -

MediaInfo

Format : AVI
Format/Info : Audio Video Interleave
File size : 787 MiB
Duration : 58 min 51 s
Overall bit rate : 1 869 kb/s
Writing application : VirtualDubMod 1.5.10.2 (build 2540/release)
Writing library : VirtualDubMod build 2540/release
Video
ID : 0
Format : MPEG-4 Visual
Format profile : Advanced Simple@L5
Format settings : BVOP2 / Custom Matrix
Format settings, BVOP : 2
Format settings, QPel : No
Format settings, GMC : No warppoints
Format settings, Matrix : Custom
Codec ID : XVID
Codec ID/Hint : XviD
Duration : 58 min 51 s
Bit rate : 1 599 kb/s
Width : 704 pixels
Height : 352 pixels
Display aspect ratio : 2.000
Frame rate : 23.976 (24000/1001) FPS
Color space : YUV
Chroma subsampling : 4:2:0
Bit depth : 8 bits
Scan type : Progressive
Compression mode : Lossy
Bits/(Pixel*Frame) : 0.269
Stream size : 673 MiB (86%)
Writing library : XviD 73
Audio #1
ID : 1
Format : MPEG Audio
Format version : Version 1
Format profile : Layer 3
Format settings : Joint stereo
Codec ID : 55
Codec ID/Hint : MP3
Duration : 58 min 51 s
Bit rate mode : Constant
Bit rate : 128 kb/s
Channel(s) : 2 channels
Sampling rate : 48.0 kHz
Compression mode : Lossy
Stream size : 53.9 MiB (7%)
Alignment : Split accross interleaves
Interleave, duration : 42 ms (1.00 video frame)
Interleave, preload duratio : 500 ms
Audio #2
ID : 2
Format : MPEG Audio
Format version : Version 1
Format profile : Layer 3
Format settings : Joint stereo
Codec ID : 55
Codec ID/Hint : MP3
Duration : 58 min 51 s
Bit rate mode : Constant
Bit rate : 128 kb/s
Channel(s) : 2 channels
Sampling rate : 48.0 kHz
Compression mode : Lossy
Stream size : 53.9 MiB (7%)
Alignment : Split accross interleaves
Interleave, duration : 42 ms (1.00 video frame)
Interleave, preload duratio : 500 ms

Скриншоты

Внимание! Раздача ведётся путём добавления новых серий

Внимание! Раздача ведётся путём добавления новых серий; при каждом добавлении создаётся новый торрент. Чтобы начать докачку новой серии, пользователям необходимо сделать следующее:
(1) остановить скачивание,
(2) удалить старый торрент у себя из клиента (старые серии удалять не надо),
(3) скачать новый торрент и запустить его у себя в клиенте вместо старого, при этом указать клиенту путь в старую папку куда и должно происходить скачивание новых серий.
Ваш клиент при этом должен произвести хеширование (проверку) старой папки (если не производит сам - помогите ему сделать это), и будет докачивать только те серии которых у вас ещё нет. Старые серии при этом не удаляются, а продолжают раздаваться!
Eсли вы уже удалили старые серии, то предотвратить повторную закачку старых серий можно, отжав галочку в соответствующих местах при запуске нового торрента. По возможности, желательно не удалять старые серии как можно дольше чтобы релизёр не столько продолжал раздавать старые серии, а смог сконцентрироваться на новых.
-
[cybertorrent.ru].t2613.torrent 
Торрент: Зарегистрирован [ 2019-05-07 17:26 ] · EA560C6E520670AEB51DC909EB996B291CD62D99

Скачать .torrent

Скачать

16 KB

Статус: проверено
Скачан: 0 раз
Размер: 787 MB
terms.php
[Профиль] [ЛС]
Показать сообщения:    
Ответить на тему

Текущее время: 16-Сен 04:21

Часовой пояс: UTC ± 0



Вы не можете начинать темы
Вы не можете отвечать на сообщения
Вы не можете редактировать свои сообщения
Вы не можете удалять свои сообщения
Вы не можете голосовать в опросах
Вы не можете прикреплять файлы к сообщениям
Вы можете скачивать файлы

Партнеры

Выражаем благодарность всем людям, внесшим вклад в наш сайт в далёком прошлом. Мы помним Вас, гордимся Вами и ждём Вас обратно!

Интересное в сети