Принцесса Лебедь: Королевское прикрытие / The Swan Princess: Royally Undercover (Ричард Рич / Richard Rich) [2017, США, США, Индия, Корея Южная, мультфильм, мюзикл, комедия, детектив, приключения, семейный, DVB] MVO

Ответить на тему
Статистика раздачи
Размер:  1,03 GB   |    Зарегистрирован:  3 месяца 1 день   |    Скачан:  0 раз

Полного источника не было: Никогда

   
 
Автор Сообщение

karlll ®

Пол: Не указан

Стаж: 3 месяца 7 дней

Сообщений: 116

Создавать темы 18-Мар-2019 10:00

[Цитировать]

Принцесса Лебедь: Королевское прикрытие
The Swan Princess: Royally Undercover
Год выпуска: 2017
Страна: США, Индия, Корея Южная
Жанр: мультфильм, мюзикл, комедия, детектив, приключения, семейный
Продолжительность: 01:11:29
Перевод: Профессиональный (многоголосый закадровый)
Субтитры: отсутствуют-Режиссёр: Ричард Рич: Richard Rich
Роли озвучивали: Лора Бэйли, Гарднер Джаэс, Клэйтон Джеймс, Дэвид Лодж, Юрий Ловенталь, Джозеф Медрано, Дженнифер Миллер, Джо Охман-О фильме: Посреди ночи по Королевству свободно разгуливает незнакомец в маске, а это значит, что в ближайшее время покой мирных жителей будет нарушен. Уже на следующее утро стало ясно, какой урон он нанёс. Неизвестный повредил мост, после чего вода хлынула на дома, снося всё на своем пути. Королева Одетт с супругом Дереком должны позаботиться о восстановлении города, а принцесса Элис вместе со своими друзьями возьмёт на себя поиски злоумышленника. Пока идёт работа по приведению Королевства в порядок и строятся предположения о том, кто может оказаться преступником, отважная Элис в компании друзей выполняет роль детектива и активно ищет врага.-
Семпл: http://sendfile.su/1473368-Качество: DVB [Первый канал "Евразия"] (эфир 02.02.2019)
Формат: TS
Видео: AVC, 720x576 @ 1047x576 (16:9), 25 fps, ~1765 kbps, 0.170 bit/pixel
Аудио: [RUS] 48 kHz, MP2, 1 ch, 192 kbps

Mediainfo

General
ID : 1 (0x1)
Complete name : H:\Раздачи\Принцесса Лебедь 7. Королевское прикрытие (2017) [DVB].ts
Format : MPEG-TS
File size : 1.03 GiB
Duration : 1 h 11 min
Overall bit rate mode : Variable
Overall bit rate : 2 061 kb/s
Video
ID : 68 (0x44)
Menu ID : 1 (0x1)
Format : AVC
Format/Info : Advanced Video Codec
Format profile : High@L3
Format settings : CABAC / 3 Ref Frames
Format settings, CABAC : Yes
Format settings, ReFrames : 3 frames
Codec ID : 27
Duration : 1 h 11 min
Bit rate : 1 765 kb/s
Width : 720 pixels
Height : 576 pixels
Display aspect ratio : 16:9
Frame rate : 25.000 FPS
Standard : Component
Color space : YUV
Chroma subsampling : 4:2:0
Bit depth : 8 bits
Scan type : Interlaced
Scan type, store method : Separated fields
Scan order : Top Field First
Bits/(Pixel*Frame) : 0.170
Stream size : 903 MiB (86%)
Color range : Limited
Color primaries : BT.601 PAL
Transfer characteristics : BT.470 System B/G
Matrix coefficients : BT.470 System B/G
Audio
ID : 69 (0x45)
Menu ID : 1 (0x1)
Format : MPEG Audio
Format version : Version 1
Format profile : Layer 2
Codec ID : 3
Duration : 1 h 11 min
Bit rate mode : Constant
Bit rate : 192 kb/s
Channel(s) : 1 channel
Sampling rate : 48.0 kHz
Frame rate : 41.667 FPS (1152 SPF)
Compression mode : Lossy
Delay relative to video : -120 ms
Stream size : 98.2 MiB (9%)
Language : English

Скриншоты

[cybertorrent.ru].t262.torrent 
Торрент: Зарегистрирован [ 2019-03-18 10:04 ] · BF3C51EFF5A493858943ED046969E3BBBD6468F8

Скачать .torrent

Скачать

11 KB

Статус: проверено
Скачан: 0 раз
Размер: 1,03 GB
terms.php
[Профиль] [ЛС]
Показать сообщения:    
Ответить на тему

Текущее время: 19-Июн 23:38

Часовой пояс: UTC ± 0



Вы не можете начинать темы
Вы не можете отвечать на сообщения
Вы не можете редактировать свои сообщения
Вы не можете удалять свои сообщения
Вы не можете голосовать в опросах
Вы не можете прикреплять файлы к сообщениям
Вы можете скачивать файлы