Подлежит уничтожению / Серии: 1-4 из 4 (Виталий Ващенко) [2019, драма, военный, WEBRip 1080p]

Ответить на тему
Статистика раздачи
Размер:  8,49 GB   |    Зарегистрирован:  1 месяц 4 дня   |    Скачан:  0 раз
Сидов:  104  [  0 KB/s  ]   Личеров:  14  [  0 KB/s  ]  
   
 
Автор Сообщение

sss777sss ®

Пол: Не указан

Стаж: 3 месяца 3 дня

Сообщений: 308

Создавать темы 11-Май-2019 16:35

[Цитировать]

Подлежит уничтожению
Год выпуска: 2019
Производство: Вайт Медиа
Жанр: драма, военный
Продолжительность: ~00:45:00 серия
Субтитры: нет
Режиссёр: Виталий Ващенко
В ролях: Александр Яцко, Дмитрий Шевченко, Антон Батырев, Алина Сергеева, Анна Сагайдачная, Сергей Фролов , Сергей Комаровский, Борис Георгиевский, Сергей Деревянко, Константин Октябрьский, Александр Ромашко
Описание: Июль 1941 года. Немцы рвутся к Москве. В ставке Верховного Главнокомандующего принимают решение применить новое секретное оружие — радиоуправляемые фугасы. Специальные группы саперов минируют дома, вокзалы, заводы. Немцы несут большие потери. Гитлер приказывает любым путем заполучить русскую мину и обезвредить ее. Оперативники НКВД, арестовав одного из засланных немецких агентов, узнают о планах нацистов. Поддержку диверсантам оказывает и вермахт, который начинает наступление именно на этом участке фронта. Но главное — на заводе-изготовителе действует шпион, который помогает немцам, и найти его и обезвредить нужно как можно быстрее.

Реклама: Нет.
Кинопоиск
Все раздачи сериала
Sample
Качество: WEBRip 1080p - ExKinoRay
Формат: MKV
Видео кодек: H.264
Аудио кодек: AC3
Видео: MPEG4 AVC Video, H264, 16:9, 1920x1080, 25 fps, ~6000 kbps, 0.116 bit/pixel
Аудио: AC3 Dolby Digital, 48.0 kHz, 2/0 (L,R) ch, 192 kbps

MI

General
Unique ID : 186916941575960388711903243756488021454 (0x8C9EE4BBB95D6681AEBA1FA29C4AD5CE)
Complete name : D:\Podlezhit.unichtozheniyu.2019.WEB-DL.(1080p).ExKinoRay\Podlezhit.unichtozheniyu.(01.seriya.iz.04).2019.WEB-DL.(1080p).ExKinoRay.mkv
Format : Matroska
Format version : Version 4 / Version 2
File size : 1.95 GiB
Duration : 45 min 31 s
Overall bit rate mode : Constant
Overall bit rate : 6 148 kb/s
Encoded date : UTC 2019-05-09 13:37:19
Writing application : mkvmerge v7.8.0 ('River Man') 32bit built on Mar 27 2015 16:18:02
Writing library : libebml v1.3.1 + libmatroska v1.4.2
Video
ID : 1
Format : AVC
Format/Info : Advanced Video Codec
Format profile : High@L4.1
Format settings : 2 Ref Frames
Format settings, CABAC : No
Format settings, ReFrames : 2 frames
Codec ID : V_MPEG4/ISO/AVC
Duration : 45 min 31 s
Bit rate mode : Constant
Bit rate : 6 000 kb/s
Width : 1 920 pixels
Height : 1 080 pixels
Display aspect ratio : 16:9
Frame rate mode : Constant
Frame rate : 25.000 FPS
Standard : PAL
Color space : YUV
Chroma subsampling : 4:2:0
Bit depth : 8 bits
Scan type : Progressive
Bits/(Pixel*Frame) : 0.116
Stream size : 1.89 GiB (97%)
Default : Yes
Forced : No
Color range : Limited
Color primaries : BT.709
Transfer characteristics : BT.709
Matrix coefficients : BT.709
Audio
ID : 2
Format : AC-3
Format/Info : Audio Coding 3
Codec ID : A_AC3
Duration : 45 min 31 s
Bit rate mode : Constant
Bit rate : 192 kb/s
Channel(s) : 2 channels
Channel positions : Front: L R
Sampling rate : 48.0 kHz
Frame rate : 31.250 FPS (1536 SPF)
Bit depth : 16 bits
Compression mode : Lossy
Stream size : 62.5 MiB (3%)
Language : Russian
Service kind : Complete Main
Default : Yes
Forced : No

Скриншоты


[cybertorrent.ru].t2721.torrent 
Торрент: Зарегистрирован [ 2019-05-11 16:35 ] · 805CEB0F063049D8578B47B61F033DA650E6848F

Скачать .torrent

Скачать

43 KB

Статус: проверено
Скачан: 0 раз
Размер: 8,49 GB
terms.php
[Профиль] [ЛС]
Показать сообщения:    
Ответить на тему

Текущее время: 16-Июн 03:41

Часовой пояс: UTC ± 0



Вы не можете начинать темы
Вы не можете отвечать на сообщения
Вы не можете редактировать свои сообщения
Вы не можете удалять свои сообщения
Вы не можете голосовать в опросах
Вы не можете прикреплять файлы к сообщениям
Вы можете скачивать файлы