Цыпленок (Лейла Аранышева) [1984, СССР, мультфильм, DVB]

Ответить на тему
Статистика раздачи
Размер:  110 MB   |    Зарегистрирован:  5 месяцев   |    Скачан:  0 раз

Полного источника не было: Никогда

   
 
Автор Сообщение

xelon ®

Пол: Не указан

Стаж: 5 месяцев 6 дней

Сообщений: 94

Создавать темы 18-Мар-2019 10:00

[Цитировать]

Цыпленок Жанр: мультфильм
Студия: Казахфильм
Продолжительность: 00:06:20
Год выпуска: 1984-Режиссёр: Лейла Аранышева-Описание: ... Когда и где это было - неизвестно. Только однажды на рассвете цыпленок, едва появившись на свет, назвал своей мамой — солнце. И с тех пор он стал мечтать о том, как бы ему подняться к маме. Удастся ли ему осуществить мечту?-Качество: DVB [Ел Арна] (эфир 09.02.2019)
Формат: TS
Видео: AVC, 720x576 (16:9) @ 1047x576, 25 fps, ~2111 kbps, 0.204 bit/pixel
Аудио: [RUS] MP2, 48 kHz, 2 ch, 192 kbps

Mediainfo

General
ID : 1 (0x1)
Complete name : H:\Раздачи\Цыпленок (1984) [DVB].ts
Format : MPEG-TS
File size : 110 MiB
Duration : 6 min 20 s
Overall bit rate mode : Variable
Overall bit rate : 2 425 kb/s
Video
ID : 68 (0x44)
Menu ID : 1 (0x1)
Format : AVC
Format/Info : Advanced Video Codec
Format profile : High@L3
Format settings : CABAC / 3 Ref Frames
Format settings, CABAC : Yes
Format settings, ReFrames : 3 frames
Codec ID : 27
Duration : 6 min 20 s
Bit rate : 2 111 kb/s
Width : 720 pixels
Height : 576 pixels
Display aspect ratio : 16:9
Frame rate : 25.000 FPS
Standard : Component
Color space : YUV
Chroma subsampling : 4:2:0
Bit depth : 8 bits
Scan type : Interlaced
Scan type, store method : Separated fields
Scan order : Top Field First
Bits/(Pixel*Frame) : 0.204
Stream size : 95.6 MiB (87%)
Color range : Limited
Color primaries : BT.601 PAL
Transfer characteristics : BT.470 System B/G
Matrix coefficients : BT.470 System B/G
Audio
ID : 69 (0x45)
Menu ID : 1 (0x1)
Format : MPEG Audio
Format version : Version 1
Format profile : Layer 2
Codec ID : 3
Duration : 6 min 20 s
Bit rate mode : Constant
Bit rate : 192 kb/s
Channel(s) : 2 channels
Sampling rate : 48.0 kHz
Frame rate : 41.667 FPS (1152 SPF)
Compression mode : Lossy
Delay relative to video : -120 ms
Stream size : 8.70 MiB (8%)
Language : English

Скриншоты

[cybertorrent.ru].t273.torrent 
Торрент: Зарегистрирован [ 2019-03-18 10:04 ] · DD01B0B33A2A9D1E74C0547251251A908C968614

Скачать .torrent

Скачать

18 KB

Статус: проверено
Скачан: 0 раз
Размер: 110 MB
terms.php
[Профиль] [ЛС]
Показать сообщения:    
Ответить на тему

Текущее время: 18-Авг 23:58

Часовой пояс: UTC ± 0



Вы не можете начинать темы
Вы не можете отвечать на сообщения
Вы не можете редактировать свои сообщения
Вы не можете удалять свои сообщения
Вы не можете голосовать в опросах
Вы не можете прикреплять файлы к сообщениям
Вы можете скачивать файлы