Кристофер Робин / Christopher Robin (Марк Форстер / Marc Forster) [2018, США, фэнтези, драма, комедия, приключения, семейный, WEBRip] [Open Matte / Локализованный видеоряд] Dub

Ответить на тему
Статистика раздачи
Размер:  1,46 GB   |    Зарегистрирован:  7 дней   |    Скачан:  0 раз

Полного источника не было: Никогда

   
 
Автор Сообщение

солнышко ®

Пол: Не указан

Стаж: 2 месяца 7 дней

Сообщений: 279

Создавать темы 12-Май-2019 17:05

[Цитировать]

Кристофер Робин / Christopher Robin
Страна: США
Жанр: фэнтези, драма, комедия, приключения, семейный
Год выпуска: 2018
Продолжительность: 01:40:19-Перевод: Профессиональный (дублированный)
Субтитры: нет
Оригинальная аудиодорожка: нет-Режиссер: Марк Форстер / Marc Forster-В ролях: Юэн МакГрегор, Хейли Этвелл, Бронте Кармайкл, Марк Гейтисс, Оливер Форд Дейвис, Ронки Адеколуэхо, Эдриан Скарборо, Роджер Эштон-Гриффитс, Кен Нвосу, Джон Даглиш-Описание: В жизни повзрослевшего Кристофера Робина царит повседневная рутина. Однажды он встречает друга детства — медвежонка Винни. Вместе им предстоит вернуться в Стоакровый лес, чтобы не только отыскать потерявшихся друзей, но и вновь обрести счастье.- -Качество видео: WEBRip
Формат видео: AVI
Видео: 704x400 (1.76:1), 25 fps, XviD build 73 ~1687 kbps avg, 0.24 bit/pixel
Аудио: 48 kHz, AC3 Dolby Digital, 3/2 (L,C,R,l,r) + LFE ch, ~384 kbps-[box]Сэмпл[/box]-

MediaInfo

Код:Формат : AVI
Формат/Информация : Audio Video Interleave
Размер файла : 1,46 Гбайт
Продолжительность : 1 ч. 40 м.
Общий поток : 2082 Кбит/сек
Название фильма : Кристофер Робин_2018_WEBRip
Программа кодирования : VirtualDubMod 1.5.10.3 | www.virtualdub-fr.org || (build 2550/release)
Авторское право : порошков
Видео
Идентификатор : 0
Формат : MPEG-4 Visual
Профиль формата : Advanced Simple@L5
Настройки формата : BVOP1 / Custom Matrix
Параметр BVOP формата : 1
Параметр QPel формата : Нет
Параметр GMC формата : Без точки перехода
Параметр матрицы формата : Выборочная
Идентификатор кодека : XVID
Идентификатор кодека/Подсказка : XviD
Продолжительность : 1 ч. 40 м.
Битрейт : 1688 Кбит/сек
Ширина : 704 пикселя
Высота : 400 пикселей
Соотношение сторон : 16:9
Частота кадров : 25,000 кадров/сек
Цветовое пространство : YUV
Субдискретизация насыщенности : 4:2:0
Битовая глубина : 8 бит
Тип развёртки : Прогрессивная
Метод сжатия : С потерями
Бит/(Пиксели*Кадры) : 0.240
Размер потока : 1,18 Гбайт (81%)
Библиотека кодирования : XviD 73
Аудио
Идентификатор : 1
Формат : AC-3
Формат/Информация : Audio Coding 3
Коммерческое название : Dolby Digital
Идентификатор кодека : 2000
Продолжительность : 1 ч. 40 м.
Вид битрейта : Постоянный
Битрейт : 384 Кбит/сек
Каналы : 6 каналов
ChannelLayout : L R C LFE Ls Rs
Частота : 48,0 КГц
Частота кадров : 31,250 кадров/сек (1536 SPF)
Битовая глубина : 16 бит
Метод сжатия : С потерями
Размер потока : 276 Мбайт (18%)
Выравнивание : Разделение по промежуткам
Продолжительность промежутка : 40 мс. (1,00 видеокадр)
Время предзагрузки промежутка : 500 мс.
ServiceKind/String : Complete Main

Скриншоты


[cybertorrent.ru].t2742.torrent 
Торрент: Зарегистрирован [ 2019-05-12 17:05 ] · 3595CECF5C7A764FAFEF99DB901FA056D3A96694

Скачать .torrent

Скачать

15 KB

Статус: проверено
Скачан: 0 раз
Размер: 1,46 GB
terms.php
[Профиль] [ЛС]
Показать сообщения:    
Ответить на тему

Текущее время: 19-Май 18:45

Часовой пояс: UTC ± 0



Вы не можете начинать темы
Вы не можете отвечать на сообщения
Вы не можете редактировать свои сообщения
Вы не можете удалять свои сообщения
Вы не можете голосовать в опросах
Вы не можете прикреплять файлы к сообщениям
Вы можете скачивать файлы