Мой дорогой доктор Граслер / Mio caro dottor Gräsler (Роберто Фаэнца / Roberto Faenza) [1990, Италия, Венгрия, драма, DVDRip] AVO (Андрей Гаврилов)

Ответить на тему
Статистика раздачи
Размер:  1,36 GB   |    Зарегистрирован:  3 месяца 7 дней   |    Скачан:  0 раз

Полного источника не было: Никогда

   
 
Автор Сообщение

serzh ®

Пол: Не указан

Стаж: 5 месяцев 7 дней

Сообщений: 350

Создавать темы 12-Май-2019 17:05

[Цитировать]

Мой дорогой доктор Граслер / Mio caro dottor Gräsler
Страна: Италия, Венгрия
Жанр: драма
Год выпуска: 1990
Продолжительность: 01:48:29
Перевод: Авторский (одноголосый закадровый) Андрей Гаврилов
Субтитры: нет
Режиссер: Роберто Фаэнца / Roberto Faenza
В ролях: Кит Кэрредин, Миранда Ричардсон, Кристин Скотт Томас, Сара-Джейн Фентон, Мари Тёрёчик, Франко Диоджене, Марио Адорф, Макс фон Сюдов, Elizabeth Cozzolina, Gérgély Légradi...
Описание: Почему сестра доктора Грэслера покончила с собой? Она же была единственным человеком, кто заботился о Грэслере. Воспоминание о ее смерти страшно тяготило доктора, да и зимний курортный сезон подошел к концу, и Грэслер уехал в город, не предполагая, что когда-нибудь сюда еще приедет. И не задумываясь над тем, не он ли сам собственным равнодушием сеет вокруг себя болезни и смерть?
Доп. информация: Звук с VHSRip от alenavova. Синхронизация звука - Dreven.
Сэмпл: http://sendfile.su/1493945
Качество видео: DVDRip
Формат видео: AVI
Видео: 688x368 (1.87:1), 25 fps, DivX Codec 6.8.5/6.9.1 ~1598 kbps avg, 0.25 bit/pixel
Аудио: 48 kHz, AC3 Dolby Digital, 2/0 (L,R) ch, ~192 kbps - Андрей Гаврилов

MediaInfo

General
Complete name : C:\Mio caro dottor Grasler.avi
Format : AVI
Format/Info : Audio Video Interleave
File size : 1.36 GiB
Duration : 1 h 48 min
Overall bit rate : 1 800 kb/s
Writing application : VirtualDubMod 1.5.10.3 (build 2550/release)
Writing library : VirtualDubMod build 2550/release
Video
ID : 0
Format : MPEG-4 Visual
Format settings : BVOP
Format settings, BVOP : Yes
Format settings, QPel : No
Format settings, GMC : No warppoints
Format settings, Matrix : Default (H.263)
Codec ID : DX50
Codec ID/Hint : DivX 5
Duration : 1 h 48 min
Bit rate : 1 598 kb/s
Nominal bit rate : 9 708 kb/s
Width : 688 pixels
Height : 368 pixels
Display aspect ratio : 5:4
Original display aspect rat : 1.85:1
Frame rate : 25.000 FPS
Color space : YUV
Chroma subsampling : 4:2:0
Bit depth : 8 bits
Scan type : Progressive
Compression mode : Lossy
Bits/(Pixel*Frame) : 0.253
Stream size : 1.21 GiB (89%)
Writing library : DivX 6.8.5 (UTC 2009-08-20)
Audio
ID : 1
Format : AC-3
Format/Info : Audio Coding 3
Commercial name : Dolby Digital
Codec ID : 2000
Duration : 1 h 48 min
Bit rate mode : Constant
Bit rate : 192 kb/s
Channel(s) : 2 channels
Channel layout : L R
Sampling rate : 48.0 kHz
Frame rate : 31.250 FPS (1536 SPF)
Bit depth : 16 bits
Compression mode : Lossy
Stream size : 149 MiB (11%)
Alignment : Split accross interleaves
Interleave, duration : 40 ms (1.00 video frame)
Interleave, preload duratio : 500 ms
Title : Андрей Гаврилов
Service kind : Complete Main

Скриншоты

[cybertorrent.ru].t2754.torrent 
Торрент: Зарегистрирован [ 2019-05-12 17:05 ] · C29597B02F22EC8635E1574B2757205D4C24C746

Скачать .torrent

Скачать

14 KB

Статус: проверено
Скачан: 0 раз
Размер: 1,36 GB
terms.php
[Профиль] [ЛС]
Показать сообщения:    
Ответить на тему

Текущее время: 19-Авг 19:53

Часовой пояс: UTC ± 0



Вы не можете начинать темы
Вы не можете отвечать на сообщения
Вы не можете редактировать свои сообщения
Вы не можете удалять свои сообщения
Вы не можете голосовать в опросах
Вы не можете прикреплять файлы к сообщениям
Вы можете скачивать файлы