Чувства / Jausmai (Альгирдас Дауса / Algirdas Dausa, Альмантас Грикявичюс / Almantas Grikevicius) [1968, Драма, TVRip] Dub (к/с "Ленфильм")

Ответить на тему
Статистика раздачи
Размер:  749 MB   |    Зарегистрирован:  1 месяц 2 дня   |    Скачан:  0 раз

Полного источника не было: Никогда

   
 
Автор Сообщение

edich ®

Пол: Не указан

Стаж: 3 месяца 3 дня

Сообщений: 91

Создавать темы 13-Май-2019 15:31

[Цитировать]

Чувства / Jausmai
Жанр: Драма
Страна: CCCP
Студия: Литовская киностудия
Год выпуска: 1968
Продолжительность: 01:24:35.879 (126897 frames)
Перевод: Советский дубляж – к/с «Ленфильм»
Режиссёры: Альгирдас Дауса / Algirdas Dausa, Альмантас Грикявичюс / Almantas Grikevicius
В ролях:
Регимантас Адомайтис ... Каспарас, брат-близнец - дублировал Александр Демьяненко
Юозас Будрайтис ... Андрюс, брат-близнец - дублировал Игорь Ефимов
Бронюс Бабкаускас ... Вайткявичюс, милиционер
Эугения Байорите ... Морта, жена Каспараса / Яне
Гедиминас Гирдвайнис ... Вальдас, брат Яне
Альгимантас Масюлис ... Фердинанд, немецкий солдат - дублирует Леонид Быков
Лаймонас Норейка ... филолог, «Лесные братья»
Регина Палюкайтите ... Агне, жена Андрюса
Витаутас Паукште ... учитель, «Лесные братья»
Гедиминас Карка ... офицер, начальник милиции
Казимирас Валайтис ... Витаутас, муж Яне,"Лесные братья"
Аурелия Микушаускайте ... Гертруда
Балис Бараускас ... русский солдат
Юозас Ярушявичюс … Монкус
Повилас Станкус … советский сержант
Альгирдас Курайтис … милиционер
Описание: По мотивам романа латышского писателя Эгонса Ливса (Egons Livs) "Чертов кряж".
Заканчивается Вторая мировая война. Фронт уже вплотную подошёл к небольшому рыбацкому посёлку в Литве. Неожиданно овдовев, гордый, молчаливый, независимый и ещё молодой рыбак по имени Каспарас грузит в небольшой баркас свою корову, оглушённого охранника, своих малюток-близнецов и переплывает на другую сторону залива, — уже занятую «красными», — к своему брату, который женат на его бывшей пассии, Агнеи. Все понимают, что будет нелегко, но кто скажет — насколько?...
Дополнительная информация:
Релиз:
Автор рипа: pmv
Большое спасибо за:
- прокатную копию с советским дубляжом problesk
- помощь в подготовке релиза - trecioka
* Фильм дублирован на киностудии «Ленфильм» в 1968 году и выпущен в прокат с 1 сентября 1969 года.
Режиссёр дубляжа: Максим Руф
Звукооператор дубляжа: Н.Даболин
Роли дублировали: Александр Демьяненко, Игорь Ефимов, Лариса Архипова, Леонид Быков, Павел Кашлаков, Юрий Дедович, Лилия Гурова, Галина Теплинская, Александр Суснин
* Награды и номинации:
Кинофестиваль республик Прибалтики, Белоруссии и Молдавии (Минск), 1969 год
- Диплом за лучшую операторскую работу (Й.Томашявичюс)
- Диплом за лучшее исполнение женской роли (Р.Палюкайтите)
Международный кинофестиваль в Сан-Ремо, 1975 год
- Специальный приз
* Сценарий написал Витаутас Жалакявичюс, он же является художественным руководителем.
* Этот искренний и эмоциональный фильм имел сложную судьбу и, как следствие, ограниченный прокат (всего 52 копии). Кинокритики в 1995 году выдвинули фильм на звание лучшего литовского фильма всех времён.
IMDb = 7,2/10 (127) - https://www.imdb.com/title/tt0151113/
Кинопоиск = 6.924 (74) - https://www.kinopoisk.ru/film/225275/
ПРОСЬБА к СКАЧАВШИМ. НЕ УХОДИТЕ С РАЗДАЧИ, ПОМОГИТЕ ДРУГИМ СКАЧАТЬ!!!
Качество видео: TVRip
Формат видео: AVI
Видео: 720x336 (2.14:1), 25 fps, XviD build 73 ~1099 kbps avg, 0.18 bit/pixel
Аудио: 48 kHz, MPEG Layer 3, 2 ch, ~128.00 kbps avg – советский дубляж

MediaInfo

General
Complete name : D:\torrents\Чувства (1968, Лит. к-ст, рус.дубл.).avi
Format : AVI
Format/Info : Audio Video Interleave
File size : 749 MiB
Duration : 1 h 24 min
Overall bit rate : 1 237 kb/s
Writing application : VirtualDubMod 1.5.10.3 | www.virtualdub-fr.org || (build 2550/release)
Writing library : VirtualDubMod build 2550/release
Video
ID : 0
Format : MPEG-4 Visual
Format profile : Advanced Simple@L5
Format settings, BVOP : 2
Format settings, QPel : No
Format settings, GMC : No warppoints
Format settings, Matrix : Default (H.263)
Codec ID : XVID
Codec ID/Hint : XviD
Duration : 1 h 24 min
Bit rate : 1 100 kb/s
Width : 720 pixels
Height : 336 pixels
Display aspect ratio : 2.143
Frame rate : 25.000 FPS
Color space : YUV
Chroma subsampling : 4:2:0
Bit depth : 8 bits
Scan type : Progressive
Compression mode : Lossy
Bits/(Pixel*Frame) : 0.182
Stream size : 665 MiB (89%)
Writing library : XviD 73
Audio
ID : 1
Format : MPEG Audio
Format version : Version 1
Format profile : Layer 3
Mode : Joint stereo
Mode extension : MS Stereo
Codec ID : 55
Codec ID/Hint : MP3
Duration : 1 h 24 min
Bit rate mode : Constant
Bit rate : 128 kb/s
Channel(s) : 2 channels
Sampling rate : 48.0 kHz
Compression mode : Lossy
Stream size : 77.5 MiB (10%)
Alignment : Aligned on interleaves
Interleave, duration : 40 ms (1.00 video frame)
Interleave, preload duration : 504 ms
Writing library : LAME3.99r
Encoding settings : -m j -V 4 -q 3 -lowpass 17 -b 128

Сравнение с раздачей жук_короед от 28-Марта-2009

https://cybertorrent.ru/viewtopic.php?t=1701124
жук_короед, DVDrip, avi, 720x320, 1.37 GB < > CaCa48, TVrip, avi, 720x336, 749 MB
http://screenshotcomparison.com/comparison/135278/
МОИ РАЗДАЧИ НА РУТРЕКЕРЕ: https://cybertorrent.ru/tracker.php?rid=27390064
[cybertorrent.ru].t2767.torrent 
Торрент: Зарегистрирован [ 2019-05-13 15:31 ] · 1EF9C246FD4D9AEF60F00E8597F63B2C7C7F7C97

Скачать .torrent

Скачать

15 KB

Статус: проверено
Скачан: 0 раз
Размер: 749 MB
terms.php
[Профиль] [ЛС]
Показать сообщения:    
Ответить на тему

Текущее время: 16-Июн 02:31

Часовой пояс: UTC ± 0



Вы не можете начинать темы
Вы не можете отвечать на сообщения
Вы не можете редактировать свои сообщения
Вы не можете удалять свои сообщения
Вы не можете голосовать в опросах
Вы не можете прикреплять файлы к сообщениям
Вы можете скачивать файлы