СеняФедя / Сезон: 2 / Серии: 1-2 из ?? (Антон Федотов) [2019, комедия, WEBRip]

Ответить на тему
Статистика раздачи
Размер:  619 MB   |    Зарегистрирован:  10 дней   |    Скачан:  0 раз
Сидов:  2  [  0 KB/s  ]  
   
 
Автор Сообщение

sss777sss ®

Пол: Не указан

Стаж: 2 месяца 13 дней

Сообщений: 245

Создавать темы 14-Май-2019 16:00

[Цитировать]

#СеняФедя
Год выпуска: 2019
Производство: PICK UP FILM
Жанр: комедия
Продолжительность: ~00:24:00 серия
Субтитры: нет
Режиссёр: Антон Федотов
В ролях: Сергей Лавыгин, Михаил Тарабукин, Анна Бегунова, Ирина Серова, Леся Кудряшова, Сергей Марухин, Дмитрий Мазуров, Анастасия Шумилкина, Юлия Беляева, Никита Абдулов
Описание: Сеня и Федя решают открыть собственный бизнес — закусочную на колёсах. Совместная работа не ладится с первого дня, но разойтись друзья не могут, ведь ничто так не объединяет людей, как совместный кредит. Попав в мир деловых отношений, парни сталкиваются не только с проблемой поиска компромиссов, но и с крупной сетью фудтраков, стремящихся вытеснить с улиц всех конкурентов. На фоне борьбы с акулами гастрономического бизнеса друзья не заметят, как поменяются ролями на личной «кухне»: семьянин Сеня попробует на вкус холостяцкую жизнь, а бабник Федя отправится на поиски тихой семейной гавани.

Реклама: Нет.
Кинопоиск
Все раздачи сериала
Sample
Качество: WEBRip - 25Kuzmich
Формат: AVI
Видео кодек: XviD
Аудио кодек: AC3
Видео: 720x400 (1.80:1), 25 fps, XviD build 73 ~1650 kbps avg, 0.229 bit/pixel
Аудио: 48.0 kHz, AC3 Dolby Digital, 2/0 (L,R) ch, ~ 192 kbps

Внимание! Раздача ведётся путём добавления новых серий

Раздача ведётся путём добавления новых серий, при каждом добавлении создаётся новый торрент. Чтобы начать докачку новой серии, пользователям необходимо сделать следующее:
- Остановить скачивание.
- Удалить старый торрент у себя из клиента (старые серии удалять не надо).
- Скачать новый торрент и запустить его у себя в клиенте вместо старого, при этом указать клиенту путь в старую папку куда и должно происходить скачивание новых серий.
Ваш клиент при этом должен произвести хеширование (проверку) старой папки (если не производит сам - помогите ему сделать это), и будет докачивать только те серии которых у вас ещё нет. Старые серии при этом не удаляются, а продолжают раздаваться!
Если вы уже удалили старые серии, то предотвратить повторную закачку старых серий можно, отжав галочку в соответствующих местах при запуске нового торрента. По возможности, желательно не удалять старые серии как можно дольше, чтобы релизер не столько продолжал раздавать старые серии, а смог сконцентрироваться на новых.

MI

General
Complete name : D:\SenyaFedya.S02.WEB-DLRip.25Kuzmich\SenyaFedya.s02e01.WEB-DLRip.25Kuzmich.avi
Format : AVI
Format/Info : Audio Video Interleave
File size : 309 MiB
Duration : 23 min 20 s
Overall bit rate : 1 852 kb/s
Writing application : VirtualDubMod 1.5.10.3 | www.virtualdub-fr.org || (build 2550/release)
Writing library : VirtualDubMod build 2550/release
Video
ID : 0
Format : MPEG-4 Visual
Format profile : Advanced Simple@L5
Format settings : BVOP1
Format settings, BVOP : 1
Format settings, QPel : No
Format settings, GMC : No warppoints
Format settings, Matrix : Default (MPEG)
Codec ID : XVID
Codec ID/Hint : XviD
Duration : 23 min 20 s
Bit rate : 1 650 kb/s
Width : 720 pixels
Height : 400 pixels
Display aspect ratio : 16:9
Frame rate : 25.000 FPS
Color space : YUV
Chroma subsampling : 4:2:0
Bit depth : 8 bits
Scan type : Progressive
Compression mode : Lossy
Bits/(Pixel*Frame) : 0.229
Stream size : 275 MiB (89%)
Writing library : XviD 73
Audio
ID : 1
Format : AC-3
Format/Info : Audio Coding 3
Codec ID : 2000
Duration : 23 min 20 s
Bit rate mode : Constant
Bit rate : 192 kb/s
Channel(s) : 2 channels
Channel positions : Front: L R
Sampling rate : 48.0 kHz
Frame rate : 31.250 FPS (1536 SPF)
Bit depth : 16 bits
Compression mode : Lossy
Stream size : 32.1 MiB (10%)
Alignment : Split accross interleaves
Interleave, duration : 40 ms (1.00 video frame)
Interleave, preload duratio : 500 ms
Service kind : Complete Main

Скриншоты


[cybertorrent.ru].t2785.torrent 
Торрент: Зарегистрирован [ 2019-05-14 16:00 ] · CDC0096801F49D262C0D09FBE9C0810F0A739AD8

Скачать .torrent

Скачать

13 KB

Статус: проверено
Скачан: 0 раз
Размер: 619 MB
terms.php
[Профиль] [ЛС]
Показать сообщения:    
Ответить на тему

Текущее время: 25-Май 15:06

Часовой пояс: UTC ± 0



Вы не можете начинать темы
Вы не можете отвечать на сообщения
Вы не можете редактировать свои сообщения
Вы не можете удалять свои сообщения
Вы не можете голосовать в опросах
Вы не можете прикреплять файлы к сообщениям
Вы можете скачивать файлы