СеняФедя / Сезон: 2 / Серии: 1-2 из ?? (Антон Федотов) [2019, комедия, WEBRip 720p]

Ответить на тему
Статистика раздачи
Размер:  1,19 GB   |    Зарегистрирован:  10 дней   |    Скачан:  0 раз
Сидов:  4  [  0 KB/s  ]  
   
 
Автор Сообщение

sss777sss ®

Пол: Не указан

Стаж: 2 месяца 13 дней

Сообщений: 245

Создавать темы 14-Май-2019 16:00

[Цитировать]

#СеняФедя
Год выпуска: 2019
Производство: PICK UP FILM
Жанр: комедия
Продолжительность: ~00:24:00 серия
Субтитры: нет
Режиссёр: Антон Федотов
В ролях: Сергей Лавыгин, Михаил Тарабукин, Анна Бегунова, Ирина Серова, Леся Кудряшова, Сергей Марухин, Дмитрий Мазуров, Анастасия Шумилкина, Юлия Беляева, Никита Абдулов
Описание: Сеня и Федя решают открыть собственный бизнес — закусочную на колёсах. Совместная работа не ладится с первого дня, но разойтись друзья не могут, ведь ничто так не объединяет людей, как совместный кредит. Попав в мир деловых отношений, парни сталкиваются не только с проблемой поиска компромиссов, но и с крупной сетью фудтраков, стремящихся вытеснить с улиц всех конкурентов. На фоне борьбы с акулами гастрономического бизнеса друзья не заметят, как поменяются ролями на личной «кухне»: семьянин Сеня попробует на вкус холостяцкую жизнь, а бабник Федя отправится на поиски тихой семейной гавани.

Реклама: Нет.
Кинопоиск
Все раздачи сериала
Sample
Качество: WEBRip 720p - Getty
Формат: MKV
Видео кодек: H.264
Аудио кодек: AC3
Видео: MPEG4 AVC Video, H264, 16:9, 1280x720, 25 fps, ~3400 kbps, 0.148 bit/pixel
Аудио: AC3 Dolby Digital, 48.0 kHz, 2/0 (L,R) ch, 192 kbps

Внимание! Раздача ведётся путём добавления новых серий

Раздача ведётся путём добавления новых серий, при каждом добавлении создаётся новый торрент. Чтобы начать докачку новой серии, пользователям необходимо сделать следующее:
- Остановить скачивание.
- Удалить старый торрент у себя из клиента (старые серии удалять не надо).
- Скачать новый торрент и запустить его у себя в клиенте вместо старого, при этом указать клиенту путь в старую папку куда и должно происходить скачивание новых серий.
Ваш клиент при этом должен произвести хеширование (проверку) старой папки (если не производит сам - помогите ему сделать это), и будет докачивать только те серии которых у вас ещё нет. Старые серии при этом не удаляются, а продолжают раздаваться!
Если вы уже удалили старые серии, то предотвратить повторную закачку старых серий можно, отжав галочку в соответствующих местах при запуске нового торрента. По возможности, желательно не удалять старые серии как можно дольше, чтобы релизер не столько продолжал раздавать старые серии, а смог сконцентрироваться на новых.

MI

General
Unique ID : 244825891580262396496195468522967945948 (0xB82FC06741BA96FEA8438DB5DB8652DC)
Complete name : D:\SenyaFedya.S02.2019.WEB-DL.(720p).Getty\SenyaFedya.s02e01.2019.WEB-DL.(720p).Getty.mkv
Format : Matroska
Format version : Version 2
File size : 614 MiB
Duration : 23 min 20 s
Overall bit rate mode : Variable
Overall bit rate : 3 675 kb/s
Encoded date : UTC 2019-05-13 17:29:59
Writing application : mkvmerge v4.0.0 ('The Stars were mine') сборка от Jun 6 2010 16:18:42
Writing library : libebml v1.0.0 + libmatroska v1.0.0
Video
ID : 1
Format : AVC
Format/Info : Advanced Video Codec
Format profile : High@L4.1
Format settings : CABAC / 5 Ref Frames
Format settings, CABAC : Yes
Format settings, ReFrames : 5 frames
Codec ID : V_MPEG4/ISO/AVC
Duration : 23 min 20 s
Bit rate mode : Variable
Bit rate : 3 410 kb/s
Maximum bit rate : 40.0 Mb/s
Width : 1 280 pixels
Height : 720 pixels
Display aspect ratio : 16:9
Frame rate mode : Constant
Frame rate : 25.000 FPS
Color space : YUV
Chroma subsampling : 4:2:0
Bit depth : 8 bits
Scan type : Progressive
Bits/(Pixel*Frame) : 0.148
Stream size : 569 MiB (93%)
Language : Russian
Default : Yes
Forced : No
Audio
ID : 2
Format : AC-3
Format/Info : Audio Coding 3
Codec ID : A_AC3
Duration : 23 min 20 s
Bit rate mode : Constant
Bit rate : 192 kb/s
Channel(s) : 2 channels
Channel positions : Front: L R
Sampling rate : 48.0 kHz
Frame rate : 31.250 FPS (1536 SPF)
Bit depth : 16 bits
Compression mode : Lossy
Stream size : 32.1 MiB (5%)
Language : Russian
Service kind : Complete Main
Default : Yes
Forced : No

Скриншоты


[cybertorrent.ru].t2786.torrent 
Торрент: Зарегистрирован [ 2019-05-14 16:00 ] · 194821B16C3EF474B4A7B4B4DEE11499C245C674

Скачать .torrent

Скачать

13 KB

Статус: проверено
Скачан: 0 раз
Размер: 1,19 GB
terms.php
[Профиль] [ЛС]
Показать сообщения:    
Ответить на тему

Текущее время: 25-Май 14:52

Часовой пояс: UTC ± 0



Вы не можете начинать темы
Вы не можете отвечать на сообщения
Вы не можете редактировать свои сообщения
Вы не можете удалять свои сообщения
Вы не можете голосовать в опросах
Вы не можете прикреплять файлы к сообщениям
Вы можете скачивать файлы