Детективы / Серии: 1-30 из ? (Дмитрий Тихон, Роман Иванов, Вадим Райкин и др.) [2019, Детектив, SATRip-AVC]

Ответить на тему
Статистика раздачи
Размер:  7,47 GB   |    Зарегистрирован:  2 месяца 7 дней   |    Скачан:  0 раз

Полного источника не было: Никогда

   
 
Автор Сообщение

sss777sss ®

Пол: Не указан

Стаж: 2 месяца 13 дней

Сообщений: 245

Создавать темы 18-Мар-2019 09:59

[Цитировать]

Детективы / Серии: 1-30 из ? (Дмитрий Тихон, Роман Иванов, Вадим Райкин и др.)
Год выпуска: 2019
Производство: Россия, ОТК
Жанр: Детектив
Продолжительность: 00:32:00
Субтитры: Нет
Режиссёр: Дмитрий Тихон, Роман Иванов, Вадим Райкин и др.
В ролях: Алексей Насонов, Игорь Лукин, Анна Хапкина, Дмитрий Кузьмин
Описание: "Детективы" – так называется частное сыскное агентство. Клиенты обращаются в него тогда, когда надо буквально "докопаться" до правды, когда нужен не просто правовой совет, но активная помощь. И когда надежды или желания обращаться в милицию по вполне понятным причинам быть не может. В интересах клиентов сотрудники "Детективов" разыскивают свидетелей, выезжают на место событий, с помощью современной техники добывают необходимые доказательства. Напряженное молниеносное расследование всякий раз приводит к результатам, неожиданным для клиентов, самих сыщиков и зрителей.
Реклама: Нет
Сэмпл: http://multi-up.com/1223187
Качество: SATRip-AVC
Формат: MPEG-4
Видео кодек: AVC
Аудио кодек: AAC
Видео: 720:576 (4:2:0), 25 fps, Advanced Video Codec ~1 800 Kbps, 0.097 bit/pixel
Аудио: 44.1 KHz, Advanced Audio Codec, 2/0 (L,R), 192 Kbps

MI

General
Complete name : C:\Торрент\Детективы\2019\01. Закрытое завещание (12.01.2019).mp4
Format : MPEG-4
Format profile : Base Media / Version 2
Codec ID : mp42
File size : 256 MiB
Duration : 31mn 21s
Overall bit rate : 1 140 Kbps
Writing application : Lavf58.18.100
Video
ID : 1
Format : AVC
Format/Info : Advanced Video Codec
Format profile : High@L3.0
Format settings, CABAC : Yes
Format settings, ReFrames : 8 frames
Codec ID : avc1
Codec ID/Info : Advanced Video Coding
Duration : 31mn 21s
Bit rate mode : Variable
Bit rate : 1 800 Kbps
Width : 720 pixels
Height : 576 pixels
Display aspect ratio : 16:9
Frame rate mode : Variable
Frame rate : 25.000 fps
Minimum frame rate : 12.500 fps
Maximum frame rate : 25.000 fps
Standard : PAL
Color space : YUV
Chroma subsampling : 4:2:0
Bit depth : 8 bits
Scan type : Progressive
Bits/(Pixel*Frame) : 0.097
Stream size : 226 MiB (88%)
Encoding settings : cabac=1 / ref=8 / deblock=1:0:0 / analyse=0x3:0x113 / me=hex / subme=10 / psy=1 / psy_rd=1.00:0.00 / mixed_ref=1 / me_range=26 / chroma_me=1 / trellis=1 / 8x8dct=1 / cqm=0 / deadzone=21,11 / fast_pskip=1 / chroma_qp_offset=-2 / threads=6 / lookahead_threads=1 / sliced_threads=0 / nr=0 / decimate=1 / interlaced=0 / bluray_compat=0 / constrained_intra=0 / bframes=3 / b_pyramid=2 / b_adapt=1 / b_bias=0 / direct=1 / weightb=1 / open_gop=0 / weightp=1 / keyint=250 / keyint_min=25 / scenecut=40 / intra_refresh=0 / rc_lookahead=30 / rc=2pass / mbtree=1 / bitrate=1298 / ratetol=1.0 / qcomp=0.60 / qpmin=0 / qpmax=69 / qpstep=4 / cplxblur=20.0 / qblur=0.5 / vbv_maxrate=1298 / vbv_bufsize=2596 / nal_hrd=none / filler=0 / ip_ratio=1.40 / aq=1:1.00
Audio
ID : 2
Format : AAC
Format/Info : Advanced Audio Codec
Format profile : LC
Codec ID : 40
Duration : 31mn 21s
Duration_FirstFrame : 58ms
Bit rate mode : Variable
Bit rate : 192 Kbps
Channel(s) : 2 channels
Channel positions : Front: L R
Sampling rate : 44.1 KHz
Compression mode : Lossy
Stream size : 28.7 MiB (11%)

Скриншоты

Список серий

1. Закрытое завещание
2. Мечты в нокауте
3. Веб-модель
4. Прекрасная Елена
5. Невеста дальнобойщика
6. Ценная информация
7. Погром
8. Коуч
9. Мать семейства
10. Роман с камнем
11. Брат мой Миша
12. Старики
13. Кривая линия
14. Пистолет с историей
15. Тотализатор
16. Без свидетелей
17. Всё и сразу
18. Смертные сны
19. Высшая точка
20. Бедная принцесса
21. Открытое сердце
22. Видеоблогер
23. Неродная бабшука
24. Той же монетой-2
25. На все руки
26. Черный список
27. Новая жизнь Илоны
28. Помолвка
29. Миллион за сына
30. Паутина лжи
Предыдущие и альтернативные раздачи
[cybertorrent.ru].t279.torrent 
Торрент: Зарегистрирован [ 2019-03-18 10:04 ] · 4D248BD3E05E058F33A511CADAC512A8A014DB14

Скачать .torrent

Скачать

21 KB

Статус: проверено
Скачан: 0 раз
Размер: 7,47 GB
terms.php
[Профиль] [ЛС]
Показать сообщения:    
Ответить на тему

Текущее время: 25-Май 14:52

Часовой пояс: UTC ± 0



Вы не можете начинать темы
Вы не можете отвечать на сообщения
Вы не можете редактировать свои сообщения
Вы не можете удалять свои сообщения
Вы не можете голосовать в опросах
Вы не можете прикреплять файлы к сообщениям
Вы можете скачивать файлы