Смерть наступила вчера вечером / La morte risale a ieri sera (Дуччо Тессари / Duccio Tessari) [1970, Италия, Германия (ФРГ), Детектив, драма, WEB-DLRip-AVC] VO (BadBajo) + Sub Eng + Original Ita

Ответить на тему
Статистика раздачи
Размер:  1,91 GB   |    Зарегистрирован:  10 дней   |    Скачан:  0 раз
Сидов:  10  [  0 KB/s  ]  
   
 
Автор Сообщение

serzh ®

Пол: Не указан

Стаж: 2 месяца 13 дней

Сообщений: 184

Создавать темы 14-Май-2019 16:00

[Цитировать]

Смерть наступила вчера вечером / La morte risale a ieri sera
Страна: Италия, Германия (ФРГ)
Жанр: Детектив, драма
Год выпуска: 1970
Продолжительность: 01:37:38
Перевод: Одноголосый закадровый BadBajo
Субтитры: английские
Оригинальная аудиодорожка: итальянский
Режиссер: Дуччо Тессари / Duccio Tessari
В ролях: Фрэнк Вулф, Раф Валлоне, Габриэле Тинти, Джиллиан Брэй, Ева Ренци, Гиги Рицци, Берил Каннингэм, Кекко Риззоне, Уильма Касагранде, Марко Мариани
Описание: У одинокого и разочаровавшегося в жизни Берзаги из Милана уже месяц как пропала умственно отсталая 25-летняя дочь. Полиция практически расписалась с собственном бессилии и прекратила ее поиски. Берзаги встречается с полицейским инспектором Ламберти и умоляет его найти его «маленькую девочку». Отчасти из жалости, отчасти из интереса Ламберти вместе с напарником берутся за это дело. Они считают, что дочь Берзаги похитили и отдали в проститутки…
Сэмпл: http://sendfile.su/1494322
Качество видео: WEB-DLRip
Формат видео: MKV
Видео: 1280х770 (5:3), 24.000 fps, AVC/H.264 ~1 984 kbps avg, 0.084 bit/pixe
Аудио: AC3, 2 ch, 384 Kbps - Русский (BadBajo)
Аудио 2: AC3, 2 ch, 192 Kbps - Английский
Аудио 3: AC3, 2 ch, 192 Kbps - Итальянский
Формат субтитров: PGS

MediaInfo

General
Unique ID : 85708281432445626117723145046109785339 (0x407AD0879C9DA948C46EEC7D0B690CFB)
Complete name : \Death Occurred Last Night (1970)_rus_BadBajo.mkv
Format : Matroska
Format version : Version 4
File size : 1.91 GiB
Duration : 1 h 37 min
Overall bit rate : 2 808 kb/s
Movie name : Death Occurred Last Night (1970)_rus_BadBajo
Encoded date : UTC 2019-05-14 03:14:37 / UTC
Writing application : mkvmerge v33.1.0 ('Primrose') 64-bit
Writing library : libebml v1.3.7 + libmatroska v1.5.0 / Lavf55.12.0
Cover : Yes
Attachments : cover.jpg
Video
ID : 1
Format : AVC
Format/Info : Advanced Video Codec
Format profile : Main@L4
Format settings : CABAC / 8 Ref Frames
Format settings, CABAC : Yes
Format settings, ReFrames : 8 frames
Codec ID : V_MPEG4/ISO/AVC
Duration : 1 h 37 min
Bit rate : 1 984 kb/s
Width : 1 280 pixels
Height : 770 pixels
Display aspect ratio : 5:3
Frame rate mode : Constant
Frame rate : 23.976 (24000/1001) FPS
Color space : YUV
Chroma subsampling : 4:2:0
Bit depth : 8 bits
Scan type : Progressive
Bits/(Pixel*Frame) : 0.084
Stream size : 1.35 GiB (71%)
Title : Death Occurred Last Night (1970)_rus_BadBajo
Writing library : x264 core 142 r2479 dd79a61
Encoding settings : cabac=1 / ref=8 / deblock=1:-1:-1 / analyse=0x1:0x131 / me=tesa / subme=11 / psy=1 / psy_rd=1.00:0.15 / mixed_ref=1 / me_range=24 / chroma_me=1 / trellis=2 / 8x8dct=0 / cqm=0 / deadzone=21,11 / fast_pskip=0 / chroma_qp_offset=-3 / threads=12 / lookahead_threads=3 / sliced_threads=0 / nr=0 / decimate=1 / interlaced=0 / bluray_compat=0 / constrained_intra=0 / bframes=16 / b_pyramid=2 / b_adapt=2 / b_bias=0 / direct=3 / weightb=1 / open_gop=0 / weightp=2 / keyint=240 / keyint_min=24 / scenecut=40 / intra_refresh=0 / rc_lookahead=60 / rc=crf / mbtree=1 / crf=23.0 / qcomp=0.60 / qpmin=0 / qpmax=69 / qpstep=4 / vbv_maxrate=20000 / vbv_bufsize=25000 / crf_max=0.0 / nal_hrd=none / filler=0 / ip_ratio=1.40 / aq=1:1.00
Default : Yes
Forced : No
Color range : Limited
Color primaries : BT.709
Transfer characteristics : BT.709
Matrix coefficients : BT.709
Statistics Tags Issue : mkvmerge v33.1.0 ('Primrose') 64-bit 2019-05-14 03:14:37 / mkvmerge v33.1.0 ('Primrose') 64-bit 2019-05-14 03:14:37 / UTC
FromStats_BitRate : 2025739
FromStats_Duration : 01:37:37.977000000
FromStats_FrameCount : 140451
FromStats_StreamSize : 1483341856
Audio #1
ID : 2
Format : AC-3
Format/Info : Audio Coding 3
Commercial name : Dolby Digital
Codec ID : A_AC3
Duration : 1 h 37 min
Bit rate mode : Constant
Bit rate : 384 kb/s
Channel(s) : 2 channels
Channel layout : L R
Sampling rate : 48.0 kHz
Frame rate : 31.250 FPS (1536 SPF)
Bit depth : 16 bits
Compression mode : Lossy
Delay relative to video : -83 ms
Stream size : 268 MiB (14%)
Title : Death Occurred Last Night (1970)_rus_BadBajo
Language : Russian
Service kind : Complete Main
Default : Yes
Forced : Yes
Statistics Tags Issue : mkvmerge v33.1.0 ('Primrose') 64-bit 2019-05-14 03:14:37 / mkvmerge v33.1.0 ('Primrose') 64-bit 2019-05-14 03:14:37 / UTC
FromStats_BitRate : 384000
FromStats_Duration : 01:37:38.048000000
FromStats_FrameCount : 183064
FromStats_StreamSize : 281186304
Audio #2
ID : 3
Format : AC-3
Format/Info : Audio Coding 3
Commercial name : Dolby Digital
Codec ID : A_AC3
Duration : 1 h 37 min
Bit rate mode : Constant
Bit rate : 192 kb/s
Channel(s) : 2 channels
Channel layout : L R
Sampling rate : 48.0 kHz
Frame rate : 31.250 FPS (1536 SPF)
Bit depth : 16 bits
Compression mode : Lossy
Delay relative to video : -5 ms
Stream size : 134 MiB (7%)
Title : Death Occurred Last Night (1970)_eng
Language : English
Service kind : Complete Main
Default : No
Forced : No
Statistics Tags Issue : mkvmerge v33.1.0 ('Primrose') 64-bit 2019-05-14 03:14:37 / mkvmerge v33.1.0 ('Primrose') 64-bit 2019-05-14 03:14:37 / UTC
FromStats_BitRate : 192000
FromStats_Duration : 01:37:38.016000000
FromStats_FrameCount : 183063
FromStats_StreamSize : 140592384
Audio #3
ID : 4
Format : AC-3
Format/Info : Audio Coding 3
Commercial name : Dolby Digital
Codec ID : A_AC3
Duration : 1 h 37 min
Bit rate mode : Constant
Bit rate : 192 kb/s
Channel(s) : 2 channels
Channel layout : L R
Sampling rate : 48.0 kHz
Frame rate : 31.250 FPS (1536 SPF)
Bit depth : 16 bits
Compression mode : Lossy
Delay relative to video : -5 ms
Stream size : 134 MiB (7%)
Title : Death Occurred Last Night (1970)_ita
Language : Italian
Service kind : Complete Main
Default : No
Forced : No
Statistics Tags Issue : mkvmerge v33.1.0 ('Primrose') 64-bit 2019-05-14 03:14:37 / mkvmerge v33.1.0 ('Primrose') 64-bit 2019-05-14 03:14:37 / UTC
FromStats_BitRate : 192000
FromStats_Duration : 01:37:38.016000000
FromStats_FrameCount : 183063
FromStats_StreamSize : 140592384
Text
ID : 5
Format : PGS
Muxing mode : zlib
Codec ID : S_HDMV/PGS
Codec ID/Info : Picture based subtitle format used on BDs/HD-DVDs
Title : Death Occurred Last Night_eng
Default : No
Forced : No
Statistics Tags Issue : mkvmerge v33.1.0 ('Primrose') 64-bit 2019-05-14 03:14:37 / mkvmerge v33.1.0 ('Primrose') 64-bit 2019-05-14 03:14:37 / UTC
FromStats_BitRate : 26722
FromStats_Duration : 01:37:00.189000000
FromStats_FrameCount : 1781
FromStats_StreamSize : 19441339

Скриншот c названием фильма

Скриншоты

[cybertorrent.ru].t2801.torrent 
Торрент: Зарегистрирован [ 2019-05-14 16:00 ] · 45B9AB1C4051601A2E76FDF4FF63A198456176CA

Скачать .torrent

Скачать

20 KB

Статус: проверено
Скачан: 0 раз
Размер: 1,91 GB
terms.php
[Профиль] [ЛС]
Показать сообщения:    
Ответить на тему

Текущее время: 25-Май 14:53

Часовой пояс: UTC ± 0



Вы не можете начинать темы
Вы не можете отвечать на сообщения
Вы не можете редактировать свои сообщения
Вы не можете удалять свои сообщения
Вы не можете голосовать в опросах
Вы не можете прикреплять файлы к сообщениям
Вы можете скачивать файлы