Спасатели Малибу / Malibu Rescue: The Movie (Сэвидж Стив Холланд / Savage Steve Holland) [2019, США, семейный, WEB-DLRip] Dub + Sub Rus, Eng + Original Eng

Ответить на тему
Статистика раздачи
Размер:  1,46 GB   |    Зарегистрирован:  10 дней   |    Скачан:  0 раз

Полного источника не было: Никогда

   
 
Автор Сообщение

Lew ®

Пол: Не указан

Стаж: 2 месяца 13 дней

Сообщений: 148

Создавать темы 14-Май-2019 16:00

[Цитировать]

Спасатели Малибу / Malibu Rescue: The Movie
Страна: США
Жанр: семейный
Год выпуска: 2019
Продолжительность: 01:09:53
Перевод: Профессиональный (дублированный) BTI Studios совместно с Пифагор
Субтитры: русские(full, forced), английские
Оригинальная аудиодорожка: английский
Режиссер: Сэвидж Стив Холланд / Savage Steve Holland
В ролях: Бреанна Иде, Рикардо Уртадо, Джеки Р. Джейкобсон, Эбби Доннелли, Алкоя Брансон, Иэн Зиринг, ДжиТи Нил, Джереми Ховард, Джефф Мичам

Описание: Целеустремленные юные спасатели соревнуются с местными детьми-снобами за право занять спасательную вышку на пляже в Малибу.
Кинопоиск - IMDb
Sample
Качество видео: WEB-DLRip
Формат видео: AVI
Видео: 704x352 (2.00:1), 23.976 fps, XviD MPEG-4 ~2087 kbps avg, 0.35 bit/pixel
Аудио 1: Russian (AC3, 6 ch, 448 kbps, 16 bits, 48.0 KHz) - Dub
Аудио 2: English (AC3, 6 ch, 448 kbps, 16 bits, 48.0 KHz) - оригинал
Формат субтитров: softsub (SRT)

MediaInfo

General
Complete name : D:\Malibu.Rescue.The.Movie.2019.WEB-DLRip\Malibu.Rescue.The.Movie.2019.WEB-DLRip.avi
Format : AVI
Format/Info : Audio Video Interleave
File size : 1.46 GiB
Duration : 1 h 9 min
Overall bit rate : 2 999 kb/s
Writing application : VirtualDubMod 1.5.10.3 | www.virtualdub-fr.org || (build 2550/release)
Writing library : VirtualDubMod build 2550/release
Video
ID : 0
Format : MPEG-4 Visual
Format profile : Advanced Simple@L5
Format settings : BVOP1
Format settings, BVOP : 1
Format settings, QPel : No
Format settings, GMC : No warppoints
Format settings, Matrix : Default (MPEG)
Codec ID : XVID
Codec ID/Hint : XviD
Duration : 1 h 9 min
Bit rate : 2 089 kb/s
Width : 704 pixels
Height : 352 pixels
Display aspect ratio : 2.000
Frame rate : 23.976 (24000/1001) FPS
Color space : YUV
Chroma subsampling : 4:2:0
Bit depth : 8 bits
Scan type : Progressive
Compression mode : Lossy
Bits/(Pixel*Frame) : 0.352
Stream size : 1.02 GiB (70%)
Writing library : XviD 73
Audio #1
ID : 1
Format : AC-3
Format/Info : Audio Coding 3
Codec ID : 2000
Duration : 1 h 9 min
Bit rate mode : Constant
Bit rate : 448 kb/s
Channel(s) : 6 channels
Channel positions : Front: L C R, Side: L R, LFE
Sampling rate : 48.0 kHz
Frame rate : 31.250 FPS (1536 SPF)
Bit depth : 16 bits
Compression mode : Lossy
Stream size : 224 MiB (15%)
Alignment : Split accross interleaves
Interleave, duration : 42 ms (1.00 video frame)
Interleave, preload duratio : 500 ms
Service kind : Complete Main
Audio #2
ID : 2
Format : AC-3
Format/Info : Audio Coding 3
Codec ID : 2000
Duration : 1 h 9 min
Bit rate mode : Constant
Bit rate : 448 kb/s
Channel(s) : 6 channels
Channel positions : Front: L C R, Side: L R, LFE
Sampling rate : 48.0 kHz
Frame rate : 31.250 FPS (1536 SPF)
Bit depth : 16 bits
Compression mode : Lossy
Stream size : 224 MiB (15%)
Alignment : Split accross interleaves
Interleave, duration : 42 ms (1.00 video frame)
Interleave, preload duratio : 500 ms
Service kind : Complete Main

Скриншоты



[cybertorrent.ru].t2811.torrent 
Торрент: Зарегистрирован [ 2019-05-14 16:00 ] · ED6F5E788278814E7FEB02578975A5F40007B075

Скачать .torrent

Скачать

15 KB

Статус: проверено
Скачан: 0 раз
Размер: 1,46 GB
terms.php
[Профиль] [ЛС]
Показать сообщения:    
Ответить на тему

Текущее время: 25-Май 14:52

Часовой пояс: UTC ± 0



Вы не можете начинать темы
Вы не можете отвечать на сообщения
Вы не можете редактировать свои сообщения
Вы не можете удалять свои сообщения
Вы не можете голосовать в опросах
Вы не можете прикреплять файлы к сообщениям
Вы можете скачивать файлы