Попутчик / The Hitcher (Роберт Хармон / Robert Harmon) [1986, США, триллер, BDRip-AVC] MVOх2 + MVO (Рен-TV) + DVO (НТВ) + DVO (CP Digital) + Original Eng + Sub (Rus, Eng)

Ответить на тему
Статистика раздачи
Размер:  3,43 GB   |    Зарегистрирован:  4 месяца   |    Скачан:  0 раз

Полного источника не было: Никогда

   
 
Автор Сообщение

serzh ®

Пол: Не указан

Стаж: 6 месяцев 3 дня

Сообщений: 383

Создавать темы 15-Май-2019 16:23

[Цитировать]

Попутчик / The Hitcher- Страна: США
Жанр: триллер
Год выпуска: 1986
Продолжительность: 01:37:15
Перевод: Профессиональный (многоголосый закадровый)
Перевод 2: Профессиональный (многоголосый закадровый) Рен-TV/НТВ-поздний
Перевод 3: Профессиональный (двухголосый закадровый) НТВ - ранний
Перевод 4: Профессиональный (двухголосый закадровый) CP Digital/Total DVD
Субтитры: русские, английские
Оригинальная аудиодорожка: английский
Режиссер: Роберт Хармон / Robert Harmon
В ролях: Рутгер Хауэр, С. Томас Хауэлл, Дженнифер Джейсон Ли, Джеффри ДеМанн, Джон М. Джексон, Билли Грин Буш, Джек Тибо, Армин Шимерман, Джин Дэвис, Джон Ван Несс, Генри Дэрроу, Тони Эппер, Том Спрэтли, Колин Кэмпбелл, Бриттания, Гарт Шоу
Описание: Зловещий попутчик, сеющий смерть на своем пути, голосует на дороге и останавливает молодого парня. Тот соглашается его подвести в ненастье, не думая, какой опасности он себя подвергает.
Сэмпл: http://sendfile.su/1493970

Качество видео: BDRip-AVC (Попутчик 1986 BDRemux [Deu Transfer])
Формат видео: MKV
Видео: x264, 1032x432 (2.40:1) 24 fps, ~2999 kbps, 0,280 bit/pixel
Аудио 1: 48 kHz, AC3 Dolby Digital, 3/2 (L,C,R,l,r) + LFE ch, ~384 kbps | MVO 1
Аудио 2: 48 kHz, AC3 Dolby Digital, 3/2 (L,C,R,l,r) + LFE ch, ~384 kbps | MVO 2
Аудио 3: 48 kHz, AC3 Dolby Digital, 3/2 (L,C,R,l,r) + LFE ch, ~448 kbps | Английский
---------------------------------------отдельно---------------------------------------------------
Аудио 4: 48 kHz, AC3 Dolby Digital, 2/0 (L,R), ~192 kbps avg | Рен-TV
Аудио 5: 48 kHz, AC3 Dolby Digital, 2/0 (L,R), ~192 kbps avg | HTB
Аудио 6: 48 kHz, AC3 Dolby Digital, 3/2 (L,C,R,l,r) + LFE ch, ~384 kbps | CP Digital
Формат субтитров: softsub (SRT)

MediaInfo

General
Unique ID : 247318020192354830486043292930807297798 (0xBA0FB7D4952222D50CB5C2B826A5F706)
Format : Matroska
Format version : Version 4 / Version 2
File size : 2.86 GiB
Duration : 1h 37mn
Overall bit rate : 4 216 Kbps
Encoded date : UTC 2019-05-12 08:00:58
Writing application : mkvmerge v33.0.0 ('A Little Bit of Madness') 64-bit
Writing library : libebml v1.3.7 + libmatroska v1.5.0
Video #1
ID : 1
Format : AVC
Format/Info : Advanced Video Codec
Format profile : High@L4.1
Format settings, CABAC : Yes
Format settings, ReFrames : 13 frames
Codec ID : V_MPEG4/ISO/AVC
Duration : 1h 37mn
Bit rate : 2 999 Kbps
Width : 1 032 pixels
Height : 432 pixels
Display aspect ratio : 2.40:1
Frame rate mode : Constant
Frame rate : 24.000 fps
Color space : YUV
Chroma subsampling : 4:2:0
Bit depth : 8 bits
Scan type : Progressive
Bits/(Pixel*Frame) : 0.280
Stream size : 2.04 GiB (71%)
Writing library : x264 core 157 r2935 545de2f
Encoding settings : cabac=1 / ref=13 / deblock=1:-3:-2 / analyse=0x3:0x133 / me=umh / subme=10 / psy=1 / psy_rd=1.00:0.00 / mixed_ref=1 / me_range=32 / chroma_me=1 / trellis=2 / 8x8dct=1 / cqm=0 / deadzone=21,11 / fast_pskip=0 / chroma_qp_offset=-2 / threads=6 / lookahead_threads=1 / sliced_threads=0 / nr=0 / decimate=1 / interlaced=0 / bluray_compat=0 / constrained_intra=0 / bframes=11 / b_pyramid=2 / b_adapt=2 / b_bias=0 / direct=3 / weightb=1 / open_gop=0 / weightp=2 / keyint=250 / keyint_min=23 / scenecut=40 / intra_refresh=0 / rc=2pass / mbtree=0 / bitrate=2999 / ratetol=1.0 / qcomp=0.65 / qpmin=0 / qpmax=69 / qpstep=4 / cplxblur=20.0 / qblur=0.5 / ip_ratio=1.40 / pb_ratio=1.30 / aq=3:0.90
Language : English
Default : Yes
Forced : No
Audio #2
ID : 2
Format : AC-3
Format/Info : Audio Coding 3
Mode extension : CM (complete main)
Format settings, Endianness : Big
Codec ID : A_AC3
Duration : 1h 37mn
Bit rate mode : Constant
Bit rate : 384 Kbps
Channel(s) : 6 channels
Channel positions : Front: L C R, Side: L R, LFE
Sampling rate : 48.0 KHz
Frame rate : 31.250 fps (1536 spf)
Compression mode : Lossy
Stream size : 267 MiB (9%)
Title : MVO 1
Language : Russian
Default : Yes
Forced : No
Audio #3
ID : 3
Format : AC-3
Format/Info : Audio Coding 3
Mode extension : CM (complete main)
Format settings, Endianness : Big
Codec ID : A_AC3
Duration : 1h 37mn
Bit rate mode : Constant
Bit rate : 384 Kbps
Channel(s) : 6 channels
Channel positions : Front: L C R, Side: L R, LFE
Sampling rate : 48.0 KHz
Frame rate : 31.250 fps (1536 spf)
Compression mode : Lossy
Stream size : 267 MiB (9%)
Title : MVO 2
Language : Russian
Default : No
Forced : No
Audio #4
ID : 4
Format : AC-3
Format/Info : Audio Coding 3
Mode extension : CM (complete main)
Format settings, Endianness : Big
Codec ID : A_AC3
Duration : 1h 37mn
Bit rate mode : Constant
Bit rate : 448 Kbps
Channel(s) : 6 channels
Channel positions : Front: L C R, Side: L R, LFE
Sampling rate : 48.0 KHz
Frame rate : 31.250 fps (1536 spf)
Compression mode : Lossy
Stream size : 312 MiB (11%)
Language : English
Default : No
Forced : No
Text #5
ID : 5
Format : UTF-8
Codec ID : S_TEXT/UTF8
Codec ID/Info : UTF-8 Plain Text
Duration : 1h 31mn
Bit rate : 35 bps
Count of elements : 592
Stream size : 24.1 KiB (0%)
Language : Russian
Default : No
Forced : No
Text #6
ID : 6
Format : UTF-8
Codec ID : S_TEXT/UTF8
Codec ID/Info : UTF-8 Plain Text
Duration : 1h 29mn
Bit rate : 21 bps
Count of elements : 497
Stream size : 14.2 KiB (0%)
Language : English
Default : No
Forced : No

лог

raw [info]: 1032x432p 1:1 @ 10000000/416667 fps (cfr)
x264 [info]: using SAR=1/1
x264 [info]: using cpu capabilities: MMX2 SSE2Fast SSSE3 SSE4.2 AVX XOP FMA3 BMI1
x264 [info]: profile High, level 4.1, 4:2:0, 8-bit
x264 [info]: frame I:938 Avg QP:17.29 size: 75773
x264 [info]: frame P:28189 Avg QP:19.69 size: 28948
x264 [info]: frame B:110923 Avg QP:21.59 size: 11718
x264 [info]: consecutive B-frames: 1.9% 2.2% 6.7% 10.5% 16.0% 45.5% 8.5% 2.6% 2.5% 2.2% 0.8% 0.4%
x264 [info]: mb I I16..4: 1.1% 89.2% 9.7%
x264 [info]: mb P I16..4: 0.2% 13.2% 1.0% P16..4: 35.9% 29.4% 19.6% 0.4% 0.1% skip: 0.3%
x264 [info]: mb B I16..4: 0.0% 0.9% 0.1% B16..8: 49.5% 17.8% 5.6% direct: 7.6% skip:18.6% L0:47.5% L1:44.2% BI: 8.3%
x264 [info]: 8x8 transform intra:91.2% inter:59.9%
x264 [info]: direct mvs spatial:98.2% temporal:1.8%
x264 [info]: coded y,uvDC,uvAC intra: 98.1% 66.3% 24.7% inter: 44.7% 19.5% 0.4%
x264 [info]: i16 v,h,dc,p: 13% 25% 11% 51%
x264 [info]: i8 v,h,dc,ddl,ddr,vr,hd,vl,hu: 7% 10% 8% 10% 14% 13% 14% 11% 13%
x264 [info]: i4 v,h,dc,ddl,ddr,vr,hd,vl,hu: 6% 11% 2% 9% 16% 14% 16% 11% 14%
x264 [info]: i8c dc,h,v,p: 32% 33% 19% 16%
x264 [info]: Weighted P-Frames: Y:17.7% UV:8.1%
x264 [info]: ref P L0: 38.1% 11.0% 16.1% 7.3% 6.2% 4.7% 4.3% 2.5% 2.4% 2.0% 1.9% 1.6% 1.6% 0.3% 0.0%
x264 [info]: ref B L0: 64.7% 12.2% 6.8% 3.7% 3.0% 2.6% 2.2% 1.4% 1.2% 1.1% 0.7% 0.3%
x264 [info]: ref B L1: 92.8% 7.2%
x264 [info]: kb/s:2998.03
x264 [total]: encoded 140050 frames, 6.33 fps, 2998.04 kb/s

Скриншоты


[cybertorrent.ru].t2818.torrent 
Торрент: Зарегистрирован [ 2019-05-15 16:23 ] · 95B2CE1AFB31BE28D9FE9277DDE09377ABC4E27C

Скачать .torrent

Скачать

18 KB

Статус: проверено
Скачан: 0 раз
Размер: 3,43 GB
terms.php
[Профиль] [ЛС]
Показать сообщения:    
Ответить на тему

Текущее время: 16-Сен 08:14

Часовой пояс: UTC ± 0



Вы не можете начинать темы
Вы не можете отвечать на сообщения
Вы не можете редактировать свои сообщения
Вы не можете удалять свои сообщения
Вы не можете голосовать в опросах
Вы не можете прикреплять файлы к сообщениям
Вы можете скачивать файлы

Партнеры

Выражаем благодарность всем людям, внесшим вклад в наш сайт в далёком прошлом. Мы помним Вас, гордимся Вами и ждём Вас обратно!

Интересное в сети